<?xml version="1.0" standalone="no"?>
<!DOCTYPE svg PUBLIC "-//W3C//DTD SVG 1.1//EN" "http://www.w3.org/Graphics/SVG/1.1/DTD/svg11.dtd" >
<svg xmlns="http://www.w3.org/2000/svg" xmlns:xlink="http://www.w3.org/1999/xlink" version="1.1">
<metadata>
Created by FontForge 20200314 at Thu Oct 29 09:17:58 2020
 By Jason Otero
Copyright (c) Font Awesome
</metadata>
<!-- Font Awesome Pro 6.0.0-alpha1 by @fontawesome - https://fontawesome.com License - https://fontawesome.com/license (Commercial License) --><defs>
<font id="FontAwesome6Pro-Solid" horiz-adv-x="512" >
  <font-face 
    font-family="Font Awesome 6 Pro Solid"
    font-weight="900"
    font-stretch="normal"
    units-per-em="512"
    panose-1="2 0 5 3 0 0 0 0 0 0"
    ascent="448"
    descent="-64"
    bbox="-1472.06 -69 640.324 531.75"
    underline-thickness="25"
    underline-position="-50"
    unicode-range="U+0020-F8FF"
  />
    <missing-glyph />
    <glyph glyph-name="caravan-simple" unicode="&#xe000;" horiz-adv-x="640" 
d="M624 96c9 0 16 -7 16 -16v-32c0 -9 -7 -16 -16 -16h-336c0 -53 -43 -96 -96 -96s-96 43 -96 96h-32c-35 0 -64 29 -64 64v256c0 35 29 64 64 64h352c88 0 160 -72 160 -160v-160h48zM192 -16c26 0 48 22 48 48s-22 48 -48 48s-48 -22 -48 -48s22 -48 48 -48zM256 224v64
c0 18 -14 32 -32 32h-128c-18 0 -32 -14 -32 -32v-64c0 -18 14 -32 32 -32h128c18 0 32 14 32 32zM448 224v64c0 18 -14 32 -32 32h-64c-18 0 -32 -14 -32 -32v-64c0 -18 14 -32 32 -32h64c18 0 32 14 32 32z" />
    <glyph glyph-name="cat-space" unicode="&#xe001;" horiz-adv-x="640" 
d="M544 415c39 -29 64 -75 64 -127c0 -76 -54 -142 -128 -157v-179c0 -4 -2 -8 -5 -11s-7 -5 -11 -5h-32c-4 0 -8 2 -11 5s-5 7 -5 11v144l-128 -96h32c18 0 32 -14 32 -32v-16c0 -4 -2 -8 -5 -11s-7 -5 -11 -5h-176c-35 0 -64 29 -64 64v256c0 18 -14 32 -32 32
s-32 14 -32 32s14 32 32 32c53 0 96 -43 96 -96v-86c40 60 96 78 132 84c-3 11 -4 23 -4 34c0 52 25 98 64 127v1v0c27 20 60 32 96 32s69 -12 96 -32v0v-1zM448 416c-26 0 -52 -8 -73 -23l41 -41h64l41 41c-21 15 -47 23 -73 23zM504 288c0 4 -2 8 -5 11s-7 5 -11 5
c-9 0 -16 -7 -16 -16s7 -16 16 -16s16 7 16 16zM424 288c0 4 -2 8 -5 11s-7 5 -11 5c-9 0 -16 -7 -16 -16s7 -16 16 -16s16 7 16 16zM448 160c71 0 128 57 128 128c0 32 -12 61 -32 84v-84c0 -53 -43 -96 -96 -96s-96 43 -96 96v84c-20 -23 -32 -52 -32 -84
c0 -71 57 -128 128 -128zM163 379c-2 1 -3 3 -3 5s1 4 3 5l40 16l16 40c1 2 3 3 5 3s4 -1 5 -3l16 -40l40 -16c2 -1 3 -3 3 -5s-1 -4 -3 -5l-40 -16l-16 -40c-1 -2 -3 -3 -5 -3s-4 1 -5 3l-16 40z" />
    <glyph glyph-name="coffee-pot" unicode="&#xe002;" 
d="M431 270c50 -40 81 -100 81 -167c0 -51 -19 -85 -50 -117c-10 -12 -25 -18 -41 -18h-266c-16 0 -30 6 -41 18c-31 33 -50 66 -50 117c0 67 31 127 81 167l-28 82h-13c-22 0 -40 -18 -40 -40v-72c0 -9 -7 -16 -16 -16h-32c-9 0 -16 7 -16 16v88c0 49 39 88 88 88h392z
M446 128c-7 39 -28 73 -59 96h-196c-32 -23 -54 -57 -60 -96h315z" />
    <glyph glyph-name="comet" unicode="&#xe003;" 
d="M491 447c6 2 12 1 16 -4c4 -4 6 -10 4 -16c-11 -38 -34 -111 -61 -187c7 -3 13 -4 19 -6c4 -1 8 -5 10 -9c2 -5 1 -10 -1 -14c-22 -42 -83 -153 -142 -214c-1 -1 -2 -3 -3 -4c-76 -76 -200 -76 -276 0s-76 200 0 276c1 1 2 2 4 3c61 60 171 120 214 142c4 2 9 3 14 1
c4 -2 7 -6 9 -10c1 -5 3 -12 5 -19c76 27 149 50 188 61zM315 148c4 4 6 10 4 15c-2 6 -6 10 -12 11l-70 10l-31 64c-3 5 -8 8 -14 8s-11 -3 -14 -8l-31 -64l-70 -10c-6 -1 -11 -5 -12 -11c-2 -5 -1 -11 4 -15l50 -50l-12 -69c-2 -13 11 -23 22 -16l63 32l62 -32
c6 -3 12 -3 17 1c4 3 7 9 6 15l-12 69z" />
    <glyph glyph-name="fan-table" unicode="&#xe004;" horiz-adv-x="448" 
d="M224 256c9 0 16 -7 16 -16s-7 -16 -16 -16s-16 7 -16 16s7 16 16 16zM320 0c28 0 55 -18 63 -44c3 -10 -5 -20 -15 -20h-288c-10 0 -18 10 -15 20c8 26 35 44 63 44h64v35c-100 15 -176 101 -176 205c0 115 93 208 208 208s208 -93 208 -208c0 -104 -76 -190 -176 -205
v-35h64zM120 113c45 -26 103 -10 129 35c11 19 15 42 10 64l105 -18c5 0 10 2 15 5s7 8 7 14c0 37 -21 70 -55 86c-33 15 -73 10 -101 -14l-37 99c-2 8 -14 17 -27 10c-21 -13 -37 -33 -44 -58c-9 -35 3 -92 60 -113l-68 -81c-9 -12 -1 -25 6 -29z" />
    <glyph glyph-name="faucet" unicode="&#xe005;" 
d="M352 192c88 0 160 -72 160 -160c0 -18 -14 -32 -32 -32h-64c-18 0 -32 14 -32 32s-14 32 -32 32h-13c-20 -38 -64 -64 -115 -64s-95 26 -115 64h-93c-9 0 -16 7 -16 16v96c0 9 7 16 16 16h119c15 13 35 23 57 28v47l32 4l32 -4v-47c22 -5 42 -14 57 -28h39zM82 288
c-10 -1 -18 7 -18 17v30c0 10 8 18 18 17l110 -12v28c0 9 7 16 16 16h32c9 0 16 -7 16 -16v-28l110 12c10 1 18 -7 18 -17v-30c0 -10 -8 -18 -18 -17l-142 15z" />
    <glyph glyph-name="faucet-drip" unicode="&#xe006;" 
d="M416 -32c0 18 32 64 32 64s32 -46 32 -64s-14 -32 -32 -32s-32 14 -32 32zM352 256c88 0 160 -72 160 -160c0 -18 -14 -32 -32 -32h-64c-18 0 -32 14 -32 32s-14 32 -32 32h-13c-20 -38 -64 -64 -115 -64s-95 26 -115 64h-93c-9 0 -16 7 -16 16v96c0 9 7 16 16 16h119
c15 13 35 23 57 28v47l32 4l32 -4v-47c22 -5 42 -14 57 -28h39zM82 352c-10 -1 -18 7 -18 17v30c0 10 8 18 18 17l110 -12v28c0 9 7 16 16 16h32c9 0 16 -7 16 -16v-28l110 12c10 1 18 -7 18 -17v-30c0 -10 -8 -18 -18 -17l-142 15z" />
    <glyph glyph-name="galaxy" unicode="&#xe008;" 
d="M507 174c5 -21 6 -43 4 -65c-1 -15 -21 -18 -27 -4c-19 46 -61 78 -111 85c12 -32 14 -68 7 -102c-14 -71 -71 -130 -142 -147c-21 -5 -43 -6 -65 -4c-15 1 -18 21 -4 27c46 19 78 61 85 111c-32 -12 -68 -14 -102 -7c-71 14 -130 71 -147 142c-5 21 -6 43 -4 65
c1 15 21 18 27 4c19 -45 61 -78 111 -85c-12 32 -14 68 -7 102c14 71 71 130 142 147c21 5 43 6 65 4c15 -1 18 -21 4 -27c-46 -19 -78 -61 -85 -111c32 12 68 14 102 7c71 -14 130 -71 147 -142zM256 144c26 0 48 22 48 48s-22 48 -48 48s-48 -22 -48 -48s22 -48 48 -48z
" />
    <glyph glyph-name="garage" unicode="&#xe009;" horiz-adv-x="640" 
d="M128 -64v160h384v-160h-384zM272 32c-9 0 -16 -7 -16 -16s7 -16 16 -16h96c9 0 16 7 16 16s-7 16 -16 16h-96zM128 128v96h384l-1 -96h-383zM610 331c18 -8 30 -25 30 -44v-335c0 -9 -7 -16 -16 -16h-64c-9 0 -16 7 -16 16v272c0 18 -15 32 -33 32h-382
c-18 0 -33 -14 -33 -32v-272c0 -9 -7 -16 -16 -16h-64c-9 0 -16 7 -16 16v335c0 19 12 36 30 44l272 113c5 3 12 4 18 4s13 -2 18 -4z" />
    <glyph glyph-name="garage-car" unicode="&#xe00a;" horiz-adv-x="640" 
d="M610 331c18 -8 30 -25 30 -44v-335c0 -9 -7 -16 -16 -16h-64c-9 0 -16 7 -16 16v272c0 18 -15 32 -33 32h-382c-18 0 -33 -14 -33 -32v-272c0 -9 -7 -16 -16 -16h-64c-9 0 -16 7 -16 16v335c0 19 12 36 30 44l272 113c5 3 12 4 18 4s13 -2 18 -4zM469 99
c16 -6 27 -22 27 -40v-97c0 -14 -12 -26 -26 -26h-13c-15 0 -26 12 -26 26v22h-222v-22c0 -14 -11 -26 -26 -26h-13c-14 0 -26 12 -26 26v97c0 18 11 34 27 40l22 65c9 26 33 44 61 44h132c28 0 52 -18 61 -44zM239 149l-18 -53h198l-18 53c-2 7 -8 11 -15 11h-132
c-7 0 -13 -4 -15 -11zM216 16c13 0 24 11 24 24s-11 24 -24 24s-24 -11 -24 -24s11 -24 24 -24zM424 16c13 0 24 11 24 24s-11 24 -24 24s-24 -11 -24 -24s11 -24 24 -24z" />
    <glyph glyph-name="garage-open" unicode="&#xe00b;" horiz-adv-x="640" 
d="M610 331c18 -8 30 -25 30 -44v-335c0 -9 -7 -16 -16 -16h-64c-9 0 -16 7 -16 16v272c0 18 -15 32 -33 32h-382c-18 0 -33 -14 -33 -32v-272c0 -9 -7 -16 -16 -16h-64c-9 0 -16 7 -16 16v335c0 19 12 36 30 44l272 113c5 3 12 4 18 4s13 -2 18 -4zM128 160v64h384l-1 -64
h-383zM469 99c16 -6 27 -22 27 -40v-97c0 -14 -12 -26 -26 -26h-13c-15 0 -26 12 -26 26v22h-222v-22c0 -14 -11 -26 -26 -26h-13c-14 0 -26 12 -26 26v97c0 18 11 34 27 40l10 29h51l-11 -32h198l-11 32h51zM216 16c13 0 24 11 24 24s-11 24 -24 24s-24 -11 -24 -24
s11 -24 24 -24zM424 16c13 0 24 11 24 24s-11 24 -24 24s-24 -11 -24 -24s11 -24 24 -24z" />
    <glyph glyph-name="heat" unicode="&#xe00c;" horiz-adv-x="448" 
d="M64 296c0 -38 14 -75 40 -104c36 -40 56 -92 56 -146v-62c0 -9 -7 -16 -16 -16h-32c-9 0 -16 7 -16 16v62c0 38 -14 75 -39 103c-37 40 -57 93 -57 147v40c0 9 7 16 16 16h32c9 0 16 -7 16 -16v-40zM392 192c36 -40 56 -92 56 -146v-62c0 -9 -7 -16 -16 -16h-32
c-9 0 -16 7 -16 16v62c0 38 -14 75 -39 103c-37 40 -57 93 -57 147v40c0 9 7 16 16 16h32c9 0 16 -7 16 -16v-40c0 -38 14 -75 40 -104zM208 296c0 -38 14 -75 40 -104c36 -40 56 -92 56 -146v-62c0 -9 -7 -16 -16 -16h-32c-9 0 -16 7 -16 16v62c0 38 -14 75 -39 103
c-37 40 -57 93 -57 147v104c0 9 7 16 16 16h32c9 0 16 -7 16 -16v-104z" />
    <glyph glyph-name="house" unicode="&#xe00d;" horiz-adv-x="576" 
d="M565 216c7 -6 11 -15 11 -24c0 -18 -14 -32 -32 -32h-32v-160c0 -35 -29 -64 -64 -64h-320c-35 0 -64 29 -64 64v160h-32c-18 0 -32 14 -32 32c0 9 4 18 11 24l256 224c6 5 13 8 20 8c8 0 16 -2 22 -8l107 -94v54c0 9 7 16 16 16h64c9 0 16 -7 16 -16v-137zM352 149v86
c0 11 -10 21 -21 21h-86c-11 0 -21 -10 -21 -21v-86c0 -11 10 -21 21 -21h86c11 0 21 10 21 21z" />
    <glyph glyph-name="house-day" unicode="&#xe00e;" horiz-adv-x="640" 
d="M176 232c-22 0 -40 18 -40 40v0v0c0 22 18 40 40 40v0v0c22 0 40 -18 40 -40v0v0c0 -22 -18 -40 -40 -40v0v0zM104 272c0 -40 32 -72 72 -72l-27 -25c-5 -4 -9 -10 -12 -15l-4 8l-69 -23c-5 -2 -9 -1 -13 3c-3 3 -4 7 -2 12l23 69l-65 32c-5 2 -7 6 -7 11v0c0 5 2 9 7 11
l65 32l-23 69c-2 5 -1 9 3 13c3 3 7 4 12 2l69 -23l32 65c2 5 6 7 11 7v0c5 0 9 -2 11 -7l32 -65l69 23c5 2 9 1 13 -3c3 -3 4 -7 2 -12l-23 -69l13 -6l-46 -43c1 2 1 4 1 6v0v0c0 40 -32 72 -72 72v0v0c-40 0 -72 -32 -72 -72v0v0zM630 151c6 -6 10 -14 10 -23
c0 -18 -14 -32 -32 -32h-32v-112c0 -26 -22 -48 -48 -48h-256c-26 0 -48 22 -48 48v112h-32c-18 0 -32 14 -32 32c0 9 4 17 10 23l208 192c6 6 14 9 22 9s16 -3 22 -8l90 -84v44c0 9 7 16 16 16h32c9 0 16 -7 16 -16v-103zM448 80v64c0 9 -7 16 -16 16h-64
c-9 0 -16 -7 -16 -16v-64c0 -9 7 -16 16 -16h64c9 0 16 7 16 16z" />
    <glyph glyph-name="house-person-leave" unicode="&#xe00f;" horiz-adv-x="640" 
d="M357 63l-31 -31h-214c-26 0 -48 22 -48 48v112h-32c-13 0 -25 8 -30 20c-5 13 -1 27 8 36l208 192c13 11 31 11 44 0l123 -114l-3 -1c-29 -12 -53 -34 -66 -62l-7 -14c-16 -31 -3 -70 28 -85c9 -5 19 -7 29 -7c7 0 13 1 20 3c3 1 6 2 9 4c1 -3 1 -6 1 -9l-11 -29l-21 -52
c-2 -4 -4 -8 -7 -11zM224 176v64c0 9 -7 16 -16 16h-64c-9 0 -16 -7 -16 -16v-64c0 -9 7 -16 16 -16h64c9 0 16 7 16 16zM393 62l21 52c9 -12 -8 6 48 -54l-14 -34c-3 -8 -8 -15 -14 -21l-59 -60c-13 -12 -33 -11 -45 1s-13 32 -1 44l50 51c6 6 11 13 14 21zM528 352
c-27 0 -48 21 -48 48c0 26 22 48 48 48s48 -22 48 -48c0 -27 -22 -48 -48 -48zM622 203c16 -8 22 -27 15 -43c-4 -8 -11 -14 -19 -16c-8 -3 -16 -2 -24 2l-23 11c-15 8 -26 21 -32 37l-5 17l-17 -69l45 -49c7 -8 12 -18 15 -28l22 -89c4 -17 -6 -35 -23 -39s-35 6 -39 23
l-18 74c-3 10 -8 19 -15 27l-60 66c-15 16 -20 38 -15 58l15 61l-27 -11c-7 -3 -13 -8 -16 -15l-7 -14c-4 -7 -10 -13 -18 -16c-8 -2 -17 -2 -24 2c-16 8 -22 27 -15 43l7 14c11 21 28 37 50 46c37 15 57 25 93 25c47 0 88 -31 102 -76l10 -29z" />
    <glyph glyph-name="house-night" unicode="&#xe010;" horiz-adv-x="640" 
d="M112 224c-62 0 -112 50 -112 112s50 112 112 112c7 0 14 -1 21 -2c2 0 3 -2 4 -4c0 -2 -1 -4 -3 -6c-37 -21 -54 -66 -39 -106c15 -41 57 -64 99 -56c2 0 4 -1 5 -3c2 -1 1 -4 0 -5c-21 -27 -53 -42 -87 -42zM195 379c-2 1 -3 3 -3 5s1 4 3 5l40 16l16 40c1 2 3 3 5 3
s4 -1 5 -3l16 -40l40 -16c2 -1 3 -3 3 -5s-1 -4 -3 -5l-40 -16l-16 -40c-1 -2 -3 -3 -5 -3s-4 1 -5 3l-16 40zM117 85l40 -16c2 -1 3 -3 3 -5s-1 -4 -3 -5l-40 -16l-16 -40c-1 -2 -3 -3 -5 -3s-4 1 -5 3l-16 40l-40 16c-2 1 -3 3 -3 5s1 4 3 5l40 16l16 40c1 2 3 3 5 3
s4 -1 5 -3zM630 151c6 -6 10 -14 10 -23c0 -18 -14 -32 -32 -32h-32v-112c0 -26 -22 -48 -48 -48h-256c-26 0 -48 22 -48 48v112h-32c-18 0 -32 14 -32 32c0 9 4 17 10 23l208 192c6 6 14 9 22 9s16 -3 22 -8l90 -84v44c0 9 7 16 16 16h32c9 0 16 -7 16 -16v-103zM448 80v64
c0 9 -7 16 -16 16h-64c-9 0 -16 -7 -16 -16v-64c0 -9 7 -16 16 -16h64c9 0 16 7 16 16z" />
    <glyph glyph-name="house-person-return" unicode="&#xe011;" horiz-adv-x="640" 
d="M631 -9c12 -13 12 -33 0 -45c-13 -12 -32 -13 -45 -1l-60 60c-6 6 -10 13 -14 21l-13 34c55 60 38 42 47 54l21 -52c3 -8 8 -15 14 -21zM531 185c6 -20 0 -42 -15 -58l-60 -66c-7 -8 -12 -17 -15 -27l-18 -74c-4 -17 -22 -27 -39 -23s-27 22 -23 39l22 89
c3 10 8 20 15 27l46 50l-18 69l-5 -17c-5 -16 -17 -29 -32 -37l-23 -11c-8 -4 -16 -5 -24 -2s-15 8 -19 16c-7 16 -1 35 15 43l23 12l10 29c14 45 55 76 102 76c36 0 56 -10 93 -25c22 -9 40 -25 50 -46l7 -14c8 -16 1 -35 -14 -43c-8 -4 -16 -4 -24 -2c-8 3 -15 9 -19 16
l-7 14c-3 7 -9 12 -16 15l-27 11zM432 352c-26 0 -48 22 -48 48s21 48 48 48s48 -22 48 -48s-21 -48 -48 -48zM375 115v-1c-11 -11 -19 -26 -23 -42l-10 -40h-230c-26 0 -48 22 -48 48v112h-32c-13 0 -25 8 -30 20c-5 13 -1 27 8 36l208 192c13 11 31 11 44 0l127 -118
c-22 -17 -39 -40 -49 -68l-5 -17l-12 -6c-31 -16 -44 -54 -28 -85c7 -16 20 -27 36 -32c7 -3 14 -4 21 -4c8 0 16 2 23 5zM224 176v64c0 9 -7 16 -16 16h-64c-9 0 -16 -7 -16 -16v-64c0 -9 7 -16 16 -16h64c9 0 16 7 16 16z" />
    <glyph glyph-name="house-signal" unicode="&#xe012;" horiz-adv-x="640" 
d="M0 128c106 0 192 -86 192 -192h-64c0 71 -57 128 -128 128v64zM0 32c53 0 96 -43 96 -96h-96v96zM630 248c6 -7 10 -15 10 -24c0 -18 -14 -32 -32 -32h-32v-112c0 -26 -22 -48 -48 -48h-223c-20 63 -59 118 -111 158l-2 2h-1c-9 7 -18 13 -28 19c0 0 -3 5 -3 13
c0 9 4 17 10 24l208 192c6 5 14 8 22 8s16 -3 22 -8l90 -84v44c0 9 7 16 16 16h32c9 0 16 -7 16 -16v-103zM448 176v64c0 9 -7 16 -16 16h-64c-9 0 -16 -7 -16 -16v-64c0 -9 7 -16 16 -16h64c9 0 16 7 16 16zM0 224c159 0 288 -129 288 -288h-64c0 124 -100 224 -224 224v64
z" />
    <glyph glyph-name="lamp-desk" unicode="&#xe014;" 
d="M494 385c16 0 24 -19 13 -30l-221 -222c-11 -11 -30 -3 -30 13v148v0l-109 -109l53 -185h120c28 0 55 -18 63 -44c3 -10 -5 -20 -15 -20h-352c-10 0 -19 10 -15 20c8 26 35 44 63 44h86l-53 186c-3 8 0 17 6 23l119 119l-11 11c-25 25 -24 65 0 90c25 25 65 25 90 1
l45 -45h148zM380 182l78 79c20 -22 18 -56 -2 -76c-21 -21 -54 -22 -76 -3z" />
    <glyph glyph-name="lamp-floor" unicode="&#xe015;" horiz-adv-x="384" 
d="M256 0c28 0 55 -18 63 -44c3 -10 -5 -20 -15 -20h-224c-10 0 -19 10 -15 20c8 26 35 44 63 44h32v192h64v-192h32zM381 269c5 -10 4 -22 -2 -31s-16 -14 -27 -14h-320c-11 0 -21 5 -27 14s-7 21 -2 31l68 160c5 11 17 19 30 19h182c13 0 25 -8 30 -19z" />
    <glyph glyph-name="light-ceiling" unicode="&#xe016;" 
d="M288 286c116 -15 207 -104 224 -218c2 -19 -13 -36 -33 -36h-446c-20 0 -35 17 -33 36c17 114 109 203 224 218v162h64v-162zM256 -64c-35 0 -64 29 -64 64h128c0 -35 -29 -64 -64 -64z" />
    <glyph glyph-name="light-switch" unicode="&#xe017;" horiz-adv-x="384" 
d="M320 448c35 0 64 -29 64 -64v-384c0 -35 -29 -64 -64 -64h-256c-35 0 -64 29 -64 64v384c0 35 29 64 64 64h256zM192 416c-9 0 -16 -7 -16 -16s7 -16 16 -16s16 7 16 16s-7 16 -16 16zM192 -32c9 0 16 7 16 16s-7 16 -16 16s-16 -7 -16 -16s7 -16 16 -16zM288 80v96h-192
v-96c0 -26 22 -48 48 -48h96c26 0 48 22 48 48zM288 208v96c0 26 -22 48 -48 48h-96c-26 0 -48 -22 -48 -48v-96h192z" />
    <glyph glyph-name="light-switch-off" unicode="&#xe018;" horiz-adv-x="384" 
d="M320 448c35 0 64 -29 64 -64v-384c0 -35 -29 -64 -64 -64h-256c-35 0 -64 29 -64 64v384c0 35 29 64 64 64h256zM192 416c-9 0 -16 -7 -16 -16s7 -16 16 -16s16 7 16 16s-7 16 -16 16zM192 -32c9 0 16 7 16 16s-7 16 -16 16s-16 -7 -16 -16s7 -16 16 -16zM288 160v144
c0 26 -22 48 -48 48h-96c-26 0 -48 -22 -48 -48v-224c0 -26 22 -48 48 -48h96c26 0 48 22 48 48v80zM128 96v96h128v-96c0 -18 -14 -32 -32 -32h-64c-18 0 -32 14 -32 32z" />
    <glyph glyph-name="light-switch-on" unicode="&#xe019;" horiz-adv-x="384" 
d="M320 448c35 0 64 -29 64 -64v-384c0 -35 -29 -64 -64 -64h-256c-35 0 -64 29 -64 64v384c0 35 29 64 64 64h256zM192 416c-9 0 -16 -7 -16 -16s7 -16 16 -16s16 7 16 16s-7 16 -16 16zM192 -32c9 0 16 7 16 16s-7 16 -16 16s-16 -7 -16 -16s7 -16 16 -16zM288 208v96
c0 26 -22 48 -48 48h-96c-26 0 -48 -22 -48 -48v-224c0 -26 22 -48 48 -48h96c26 0 48 22 48 48v128zM224 320c18 0 32 -14 32 -32v-96h-128v96c0 18 14 32 32 32h64z" />
    <glyph glyph-name="microwave" unicode="&#xe01b;" horiz-adv-x="576" 
d="M528 416c26 0 48 -22 48 -48v-320c0 -26 -22 -48 -48 -48l-24 -32h-48l-24 32h-288l-24 -32h-48l-24 32c-26 0 -48 22 -48 48v320c0 26 22 48 48 48h480zM416 96v224h-320v-224h320zM496 184c13 0 24 11 24 24s-11 24 -24 24s-24 -11 -24 -24s11 -24 24 -24zM496 280
c13 0 24 11 24 24s-11 24 -24 24s-24 -11 -24 -24s11 -24 24 -24z" />
    <glyph glyph-name="outlet" unicode="&#xe01c;" horiz-adv-x="448" 
d="M224 160c13 0 24 -11 24 -24v-24h-48v24c0 13 11 24 24 24zM160 256c9 0 16 -7 16 -16v-48c0 -9 -7 -16 -16 -16s-16 7 -16 16v48c0 9 7 16 16 16zM288 256c9 0 16 -7 16 -16v-48c0 -9 -7 -16 -16 -16s-16 7 -16 16v48c0 9 7 16 16 16zM384 416c35 0 64 -29 64 -64v-320
c0 -35 -29 -64 -64 -64h-320c-35 0 -64 29 -64 64v320c0 35 29 64 64 64h320zM333 69c31 32 51 75 51 123s-20 91 -51 123c-4 3 -9 5 -14 5h-190c-5 0 -10 -2 -14 -5c-31 -32 -51 -75 -51 -123s20 -91 51 -123c4 -3 9 -5 14 -5h190c5 0 10 2 14 5z" />
    <glyph glyph-name="oven" unicode="&#xe01d;" horiz-adv-x="448" 
d="M0 -32v288h448v-288c0 -18 -14 -32 -32 -32h-384c-18 0 -32 14 -32 32zM64 192v-192h320v192h-320zM384 448c35 0 64 -29 64 -64v-96h-448v96c0 35 29 64 64 64h320zM80 344c13 0 24 11 24 24s-11 24 -24 24s-24 -11 -24 -24s11 -24 24 -24zM176 344c13 0 24 11 24 24
s-11 24 -24 24s-24 -11 -24 -24s11 -24 24 -24zM272 344c13 0 24 11 24 24s-11 24 -24 24s-24 -11 -24 -24s11 -24 24 -24zM368 344c13 0 24 11 24 24s-11 24 -24 24s-24 -11 -24 -24s11 -24 24 -24zM336 160c9 0 16 -7 16 -16s-7 -16 -16 -16h-224c-9 0 -16 7 -16 16
s7 16 16 16h224z" />
    <glyph glyph-name="planet-moon" unicode="&#xe01f;" horiz-adv-x="576" 
d="M512 448c35 0 64 -29 64 -64s-29 -64 -64 -64s-64 29 -64 64s29 64 64 64zM224 384c124 0 224 -100 224 -224s-100 -224 -224 -224s-224 100 -224 224s100 224 224 224zM320 111v17c0 18 -14 32 -32 32h-65c-9 0 -19 4 -26 11c-12 12 -12 31 -2 43l50 58
c7 10 11 23 11 35c0 16 -12 28 -27 29h-5c-71 0 -133 -42 -160 -103c-9 -19 5 -41 26 -41h25c8 0 16 -3 22 -9l55 -55v-32c0 -18 14 -32 32 -32v-63c0 -5 2 -9 5 -12c4 -3 8 -5 13 -4c3 0 7 1 10 1c9 2 17 8 21 16l40 80c5 9 7 19 7 29z" />
    <glyph glyph-name="planet-ringed" unicode="&#xe020;" 
d="M503 439c37 -37 -44 -177 -180 -314s-277 -217 -314 -180c-23 24 0 88 55 167c-31 76 -16 166 45 227s151 76 227 45c79 55 143 78 167 55zM346 102c36 35 78 82 114 130c14 -68 -8 -138 -57 -187s-119 -71 -187 -57c46 35 92 75 130 114z" />
    <glyph glyph-name="police-box" unicode="&#xe021;" horiz-adv-x="448" 
d="M400 -16c9 0 16 -7 16 -16v-16c0 -9 -7 -16 -16 -16h-352c-9 0 -16 7 -16 16v16c0 9 7 16 16 16h16v376c0 13 11 24 24 24h8v16c0 9 7 16 16 16h96v16c0 9 7 16 16 16s16 -7 16 -16v-16h96c9 0 16 -7 16 -16v-16h8c13 0 24 -11 24 -24v-376h16zM128 312v-24h32v32h-24
c-4 0 -8 -4 -8 -8zM128 272v-24c0 -4 4 -8 8 -8h24v32h-32zM208 136v64c0 4 -4 8 -8 8h-64c-4 0 -8 -4 -8 -8v-64c0 -4 4 -8 8 -8h64c4 0 8 4 8 8zM208 248v24h-32v-32h24c4 0 8 4 8 8zM208 288v24c0 4 -4 8 -8 8h-24v-32h32zM272 240v32h-32v-24c0 -4 4 -8 8 -8h24z
M272 288v32h-24c-4 0 -8 -4 -8 -8v-24h32zM320 248v24h-32v-32h24c4 0 8 4 8 8zM320 288v24c0 4 -4 8 -8 8h-24v-32h32z" />
    <glyph glyph-name="person-to-portal" unicode="&#xe022;" 
d="M432 448c44 0 80 -115 80 -256s-36 -256 -80 -256c-41 0 -74 98 -79 224h-23c-18 0 -35 10 -43 27l-20 41l-32 -78l61 -36c19 -11 28 -34 22 -55l-32 -101c-5 -16 -23 -26 -40 -20c-16 5 -26 23 -20 40l27 87l-85 50c-28 17 -39 51 -26 81l37 87l-15 5
c-7 1 -17 -1 -25 -7l-40 -30c-13 -11 -34 -8 -44 6c-11 14 -9 34 6 45l39 30c23 18 53 24 81 17l71 -21c27 -6 49 -25 62 -51l26 -53h13c5 126 38 224 79 224zM272 352c-26 0 -48 22 -48 48s22 48 48 48s48 -22 48 -48s-22 -48 -48 -48zM114 130c8 -17 21 -32 38 -42l10 -6
l-8 -21c-8 -18 -25 -29 -44 -29h-78c-18 0 -32 14 -32 32s14 32 32 32h67z" />
    <glyph glyph-name="person-from-portal" unicode="&#xe023;" 
d="M480 224c18 0 32 -14 32 -32s-14 -32 -32 -32h-54c-18 0 -35 10 -43 27l-20 41l-32 -78l62 -36c18 -11 27 -34 21 -55l-31 -101c-6 -16 -24 -26 -41 -20c-16 5 -26 23 -20 40l27 87l-85 50c-28 17 -39 51 -26 81l37 87l-14 5c-8 1 -18 -1 -26 -7l-39 -30
c-12 -9 -27 -8 -38 0c1 -19 2 -39 2 -59c0 -32 -2 -64 -6 -96h41l15 34c8 -17 21 -32 38 -42l10 -6l-8 -21c-8 -18 -25 -29 -44 -29h-64c-14 -58 -37 -96 -62 -96c-44 0 -80 115 -80 256s36 256 80 256c32 0 60 -62 73 -150c1 1 2 3 4 4l39 30c23 18 53 24 81 17l71 -21
c27 -6 49 -25 62 -51l26 -53h44zM368 352c-26 0 -48 22 -48 48s22 48 48 48s48 -22 48 -48s-22 -48 -48 -48z" />
    <glyph glyph-name="radar" unicode="&#xe024;" 
d="M504 192c0 -137 -111 -248 -248 -248s-248 111 -248 248s111 248 248 248c50 0 98 -15 139 -43l30 30c7 7 17 7 23 0l11 -11c7 -6 7 -16 0 -23l-201 -201h62c0 -35 -28 -64 -63 -64c-35 -1 -64 27 -65 62s27 65 62 66l28 28c-8 2 -17 4 -26 4c-53 0 -96 -43 -96 -96
s43 -96 96 -96s96 43 96 96h64c0 -79 -58 -145 -135 -157c-6 7 -14 13 -25 13s-19 -6 -25 -13c-68 11 -121 64 -132 132c7 6 13 14 13 25s-6 19 -13 25c12 77 78 135 157 135c27 0 52 -7 74 -19l24 24c-29 17 -63 27 -98 27c-96 0 -176 -71 -190 -163
c-11 -6 -18 -17 -18 -29s7 -23 18 -29c13 -83 78 -148 161 -161c6 -11 17 -18 29 -18s23 7 29 18c92 14 163 94 163 190h56z" />
    <glyph glyph-name="raygun" unicode="&#xe025;" horiz-adv-x="576" 
d="M320 416c9 0 16 -7 16 -16v-256c0 -9 -7 -16 -16 -16h-16c-9 0 -16 7 -16 16v16l-115 -200c-7 -11 -17 -19 -30 -22c-12 -4 -25 -2 -36 4l-55 32c-11 7 -20 17 -23 30c-3 12 -1 25 5 36l70 121c-58 4 -104 52 -104 111c0 45 26 83 64 101v59c0 12 14 20 24 14l103 -62h49
c17 0 33 -4 48 -11v27c0 9 7 16 16 16h16zM112 248c13 0 24 11 24 24s-11 24 -24 24s-24 -11 -24 -24s11 -24 24 -24zM208 248c13 0 24 11 24 24s-11 24 -24 24s-24 -11 -24 -24s11 -24 24 -24zM569 329c5 -3 7 -8 7 -13v-84c0 -5 -2 -10 -7 -13c-4 -3 -9 -4 -14 -2l-75 25
h-64v-66c0 -9 -7 -16 -16 -16h-16c-9 0 -16 7 -16 16v192c0 9 7 16 16 16h16c9 0 16 -7 16 -16v-62h64l75 25v0c5 1 10 1 14 -2z" />
    <glyph glyph-name="refrigerator" unicode="&#xe026;" horiz-adv-x="384" 
d="M0 288v96c0 35 29 64 64 64h256c35 0 64 -29 64 -64v-96h-64v80c0 9 -7 16 -16 16v0c-9 0 -16 -7 -16 -16v-80h-288zM320 256h64v-288c0 -18 -14 -32 -32 -32h-320c-18 0 -32 14 -32 32v288h288v-176c0 -9 7 -16 16 -16v0c9 0 16 7 16 16v176z" />
    <glyph glyph-name="rocket-launch" unicode="&#xe027;" 
d="M505 429c7 -32 7 -58 7 -83c0 -102 -55 -164 -128 -211v-104c0 -17 -12 -36 -26 -43l-99 -50c-4 -1 -7 -2 -11 -2c-13 0 -24 11 -24 24v104c0 53 -43 96 -96 96h-104c-13 0 -24 11 -24 24c0 4 1 7 3 11l49 99c7 14 27 26 43 26h104c46 73 108 128 211 128
c25 0 51 0 83 -7c5 -1 11 -7 12 -12zM384 280c22 0 40 18 40 40s-18 40 -40 40s-40 -18 -40 -40s18 -40 40 -40zM36 96c40 40 94 43 130 6c37 -36 34 -90 -6 -130c-26 -26 -90 -39 -159 -35c-4 68 9 133 35 159zM117 12c14 13 15 31 2 43c-12 13 -30 12 -43 -2
c-9 -8 -13 -30 -12 -53c23 -1 45 3 53 12z" />
    <glyph glyph-name="sensor" unicode="&#xe028;" horiz-adv-x="448" 
d="M384 416c35 0 64 -29 64 -64v-320c0 -35 -29 -64 -64 -64h-320c-35 0 -64 29 -64 64v320c0 35 29 64 64 64h320zM96 176v160c0 9 -7 16 -16 16s-16 -7 -16 -16v-160c0 -9 7 -16 16 -16s16 7 16 16zM160 176v160c0 9 -7 16 -16 16s-16 -7 -16 -16v-160c0 -9 7 -16 16 -16
s16 7 16 16zM224 176v160c0 9 -7 16 -16 16s-16 -7 -16 -16v-160c0 -9 7 -16 16 -16s16 7 16 16z" />
    <glyph glyph-name="sensor-triangle-exclamation" unicode="&#xe029;" horiz-adv-x="640" 
d="M235 61c-15 -26 -15 -58 0 -83c2 -4 5 -7 7 -10h-178c-35 0 -64 29 -64 64v320c0 35 29 64 64 64h320c35 0 64 -29 64 -64v-6c-30 1 -57 -15 -72 -41zM96 176v160c0 9 -7 16 -16 16s-16 -7 -16 -16v-160c0 -9 7 -16 16 -16s16 7 16 16zM160 176v160c0 9 -7 16 -16 16
s-16 -7 -16 -16v-160c0 -9 7 -16 16 -16s16 7 16 16zM208 160c9 0 16 7 16 16v160c0 9 -7 16 -16 16s-16 -7 -16 -16v-160c0 -9 7 -16 16 -16zM633 45c20 -34 -5 -77 -44 -77h-282c-39 0 -64 43 -44 77l141 244c19 34 69 34 88 0zM448 16c13 0 24 11 24 24s-11 24 -24 24
s-24 -11 -24 -24s11 -24 24 -24zM467 99l10 96c0 3 -1 7 -3 9c-3 3 -6 4 -9 4h-34c-3 0 -6 -1 -9 -4c-2 -2 -3 -6 -3 -9l10 -96c1 -6 6 -11 12 -11h14c6 0 11 5 12 11z" />
    <glyph glyph-name="sensor-fire" unicode="&#xe02a;" horiz-adv-x="640" 
d="M289 133c0 -67 33 -128 88 -165h-313c-35 0 -64 29 -64 64v320c0 35 29 64 64 64h321c31 0 57 -22 63 -51c-2 0 -4 1 -7 1c-8 0 -16 -3 -22 -9c-76 -71 -130 -163 -130 -224zM96 176v160c0 9 -7 16 -16 16s-16 -7 -16 -16v-160c0 -9 7 -16 16 -16s16 7 16 16zM161 176
v160c0 9 -8 16 -17 16c-8 0 -16 -7 -16 -16v-160c0 -9 8 -16 16 -16c9 0 17 7 17 16zM225 176v160c0 9 -7 16 -16 16s-16 -7 -16 -16v-160c0 -9 7 -16 16 -16s16 7 16 16zM551 297c52 -48 89 -126 89 -164c0 -91 -72 -165 -160 -165s-160 74 -160 165c0 51 50 136 120 201
c26 -24 50 -51 71 -80c12 16 26 30 40 43zM540 50c37 26 46 76 25 115c-2 5 -5 10 -8 15l-44 -50s-69 88 -74 94c-37 -44 -55 -69 -55 -98c0 -58 44 -94 98 -94c21 0 41 6 58 18z" />
    <glyph glyph-name="sensor-on" unicode="&#xe02b;" horiz-adv-x="640" 
d="M384 416c35 0 64 -29 64 -64v-320c0 -35 -29 -64 -64 -64h-320c-35 0 -64 29 -64 64v320c0 35 29 64 64 64h320zM96 176v160c0 9 -7 16 -16 16s-16 -7 -16 -16v-160c0 -9 7 -16 16 -16s16 7 16 16zM160 176v160c0 9 -7 16 -16 16s-16 -7 -16 -16v-160c0 -9 7 -16 16 -16
s16 7 16 16zM224 176v160c0 9 -7 16 -16 16s-16 -7 -16 -16v-160c0 -9 7 -16 16 -16s16 7 16 16zM616 216c13 0 24 -11 24 -24s-11 -24 -24 -24h-64c-13 0 -24 11 -24 24s11 24 24 24h64zM536 304c-10 0 -20 7 -23 17s1 21 10 27l48 32c7 5 16 6 24 2s13 -12 14 -20
c0 -9 -4 -17 -12 -22l-48 -32c-4 -3 -8 -4 -13 -4zM549 76l48 -32c11 -7 14 -22 7 -33s-22 -14 -33 -7l-48 32c-11 7 -14 22 -7 33s22 14 33 7z" />
    <glyph glyph-name="sensor-cloud" unicode="&#xe02c;" horiz-adv-x="640" 
d="M573 127c41 -7 70 -44 67 -85c-3 -42 -38 -74 -80 -74h-224c-44 0 -80 36 -80 80s36 80 80 80h2c-9 40 15 82 55 93s82 -9 97 -48c15 19 41 25 62 13c20 -12 29 -37 21 -59zM305 155c-39 -11 -68 -41 -78 -80c-9 -38 2 -79 31 -107h-194c-35 0 -64 29 -64 64v320
c0 35 29 64 64 64h320c35 0 64 -29 64 -64v-101c-10 3 -21 5 -32 5c-57 0 -106 -43 -111 -101zM96 176v160c0 9 -7 16 -16 16s-16 -7 -16 -16v-160c0 -9 7 -16 16 -16s16 7 16 16zM160 176v160c0 9 -7 16 -16 16s-16 -7 -16 -16v-160c0 -9 7 -16 16 -16s16 7 16 16zM208 160
c9 0 16 7 16 16v160c0 9 -7 16 -16 16s-16 -7 -16 -16v-160c0 -9 7 -16 16 -16z" />
    <glyph glyph-name="siren" unicode="&#xe02d;" horiz-adv-x="448" 
d="M128 281l-25 -185h-55l25 200c4 32 31 56 64 56h174c33 0 60 -24 64 -56l25 -200h-264l24 181c0 2 0 4 -2 6c-1 1 -3 3 -5 3l-16 2c-2 0 -4 0 -6 -2c-1 -1 -2 -3 -3 -5zM432 64c9 0 16 -7 16 -16v-64c0 -9 -7 -16 -16 -16h-416c-9 0 -16 7 -16 16v64c0 9 7 16 16 16h416z
" />
    <glyph glyph-name="siren-on" unicode="&#xe02e;" horiz-adv-x="640" 
d="M224 281l-25 -185h-55l25 200c4 32 31 56 64 56h175c32 0 59 -24 63 -56l25 -200h-264l24 181c0 2 0 4 -2 5c-1 2 -3 3 -5 4l-16 2c-2 0 -4 -1 -6 -2c-1 -1 -2 -3 -3 -5zM536 336c-10 0 -20 7 -23 17s1 21 10 27l48 32c7 5 16 5 24 2c8 -4 13 -12 13 -21
c1 -8 -3 -17 -11 -21l-48 -32c-4 -3 -8 -4 -13 -4zM91 340l-48 32c-8 4 -12 13 -12 21c1 9 6 17 14 21c8 3 17 3 24 -2l48 -32c8 -5 12 -13 12 -22c-1 -9 -6 -17 -14 -20c-8 -4 -17 -3 -24 2zM112 224c0 -13 -11 -24 -24 -24h-64c-13 0 -24 11 -24 24s11 24 24 24h64
c13 0 24 -11 24 -24zM616 248c13 0 24 -11 24 -24s-11 -24 -24 -24h-64c-13 0 -24 11 -24 24s11 24 24 24h64zM528 64c9 0 16 -7 16 -16v-64c0 -9 -7 -16 -16 -16h-416c-9 0 -16 7 -16 16v64c0 9 7 16 16 16h416z" />
    <glyph glyph-name="solar-system" unicode="&#xe02f;" 
d="M392 328c16 -17 17 -42 4 -61c33 -61 24 -137 -27 -188s-130 -62 -193 -26c-63 37 -93 110 -75 180c19 70 83 119 155 119c26 0 51 -7 75 -20c19 13 44 12 61 -4zM335 113c36 36 42 91 18 134c-10 1 -21 5 -29 13s-12 19 -13 29c-51 29 -115 15 -148 -33
c-34 -48 -25 -114 20 -151s111 -34 152 8zM256 256c35 0 64 -29 64 -64s-29 -64 -64 -64s-64 29 -64 64s29 64 64 64zM337 0c4 -13 11 -24 21 -34l6 -6c-97 -46 -213 -25 -289 51c-87 87 -98 222 -33 321c-12 23 -5 52 15 68c21 16 50 16 70 0c21 -17 27 -45 16 -68
c-12 -24 -38 -36 -64 -30c-49 -81 -40 -188 30 -257c60 -60 150 -77 228 -45zM437 373c87 -87 98 -222 33 -321c12 -24 5 -52 -15 -68c-21 -16 -50 -16 -70 0c-21 17 -27 45 -16 68c12 24 38 36 64 30c49 81 40 187 -30 257c-60 60 -150 77 -228 45c-4 13 -11 24 -21 34
l-6 6c97 46 213 25 289 -51z" />
    <glyph glyph-name="circle-sort" unicode="&#xe030;" 
d="M256 432c133 0 240 -107 240 -240s-107 -240 -240 -240s-240 107 -240 240s107 240 240 240zM361 129c11 11 3 31 -13 31h-183c-17 0 -25 -20 -14 -31l92 -92c3 -3 8 -5 13 -5s10 2 13 5zM347 224c17 0 25 20 14 31l-92 92c-3 3 -8 5 -13 5s-10 -2 -13 -5l-92 -92
c-11 -11 -3 -31 14 -31h182z" />
    <glyph glyph-name="circle-sort-down" unicode="&#xe031;" 
d="M197 256l59 58l59 -58h-118zM256 432c133 0 240 -107 240 -240s-107 -240 -240 -240s-240 107 -240 240s107 240 240 240zM361 129c11 11 3 31 -13 31h-183c-17 0 -25 -20 -14 -31l92 -92c3 -3 8 -5 13 -5s10 2 13 5zM347 224c17 0 25 20 14 31l-92 92c-3 3 -8 5 -13 5
s-10 -2 -13 -5l-92 -92c-11 -11 -3 -31 14 -31h182z" />
    <glyph glyph-name="circle-sort-up" unicode="&#xe032;" 
d="M256 70l-59 58h118zM256 432c133 0 240 -107 240 -240s-107 -240 -240 -240s-240 107 -240 240s107 240 240 240zM361 129c11 11 3 31 -13 31h-183c-17 0 -25 -20 -14 -31l92 -92c3 -3 8 -5 13 -5s10 2 13 5zM347 224c17 0 25 20 14 31l-92 92c-3 3 -8 5 -13 5
s-10 -2 -13 -5l-92 -92c-11 -11 -3 -31 14 -31h182z" />
    <glyph glyph-name="space-station-moon" unicode="&#xe033;" 
d="M256 432c133 0 240 -107 240 -240c0 -10 -1 -21 -2 -31c-70 -20 -151 -33 -238 -33s-168 13 -238 33c-1 10 -2 21 -2 31c0 133 107 240 240 240zM192 208c44 0 80 36 80 80s-36 80 -80 80s-80 -36 -80 -80s36 -80 80 -80zM26 126c68 -19 146 -30 230 -30s162 11 230 30
c-28 -101 -121 -174 -230 -174s-202 73 -230 174zM192 312c13 0 24 -11 24 -24s-11 -24 -24 -24s-24 11 -24 24s11 24 24 24z" />
    <glyph glyph-name="space-station-moon-construction" unicode="&#xe034;" 
d="M192 312c13 0 24 -11 24 -24s-11 -24 -24 -24s-24 11 -24 24s11 24 24 24zM384 105v-41h64v-16c-44 -58 -113 -96 -192 -96c-109 0 -202 73 -230 174c68 -19 146 -30 230 -30c43 0 86 3 128 9zM494 224c1 -10 2 -21 2 -32c0 -10 -1 -21 -2 -31c-70 -20 -151 -33 -238 -33
s-168 13 -238 33c-1 10 -2 21 -2 31c0 133 107 240 240 240c62 0 118 -23 160 -61v-19h-48v-64h80v-64h46zM192 208c44 0 80 36 80 80s-36 80 -80 80s-80 -36 -80 -80s36 -80 80 -80z" />
    <glyph glyph-name="sprinkler" unicode="&#xe035;" 
d="M398 192c7 0 13 -4 16 -10s2 -13 -2 -19l-67 -78l-25 -24v-125h-128v125l-25 24l-67 78c-4 6 -5 13 -2 19s9 10 16 10h110v176c0 9 7 16 16 16h32c9 0 16 -7 16 -16v-176h110zM152 296c-13 0 -24 11 -24 24s11 24 24 24s24 -11 24 -24s-11 -24 -24 -24zM88 352
c-13 0 -24 11 -24 24s11 24 24 24s24 -11 24 -24s-11 -24 -24 -24zM112 264c0 -13 -11 -24 -24 -24s-24 11 -24 24s11 24 24 24s24 -11 24 -24zM24 344c13 0 24 -11 24 -24s-11 -24 -24 -24s-24 11 -24 24s11 24 24 24zM24 448c13 0 24 -11 24 -24s-11 -24 -24 -24
s-24 11 -24 24s11 24 24 24zM24 240c13 0 24 -11 24 -24s-11 -24 -24 -24s-24 11 -24 24s11 24 24 24zM360 296c-13 0 -24 11 -24 24s11 24 24 24s24 -11 24 -24s-11 -24 -24 -24zM424 288c13 0 24 -11 24 -24s-11 -24 -24 -24s-24 11 -24 24s11 24 24 24zM424 400
c13 0 24 -11 24 -24s-11 -24 -24 -24s-24 11 -24 24s11 24 24 24zM488 344c13 0 24 -11 24 -24s-11 -24 -24 -24s-24 11 -24 24s11 24 24 24zM488 240c13 0 24 -11 24 -24s-11 -24 -24 -24s-24 11 -24 24s11 24 24 24zM488 400c-13 0 -24 11 -24 24s11 24 24 24
s24 -11 24 -24s-11 -24 -24 -24z" />
    <glyph glyph-name="star-shooting" unicode="&#xe036;" 
d="M309 256c-7 6 -7 16 0 23l164 164c7 7 17 7 23 0l11 -11c6 -6 6 -16 0 -23l-164 -164c-7 -7 -17 -7 -23 0zM240 357l-11 11c-7 6 -7 16 0 23l52 52c7 7 17 7 23 0l11 -11c7 -6 7 -16 0 -23l-52 -52c-7 -6 -17 -6 -23 0zM496 251l11 -11c6 -6 6 -16 0 -23l-52 -52
c-7 -7 -17 -7 -23 0l-11 11c-7 6 -7 16 0 23l52 52c7 7 17 7 23 0zM364 181c19 -3 27 -26 13 -39l-76 -75l18 -104c2 -9 -2 -17 -9 -23c-7 -5 -17 -5 -24 -1l-94 49l-94 -49c-16 -9 -36 5 -33 24l18 104l-76 75c-14 13 -6 36 13 39l105 15l46 95c9 17 33 17 42 0l47 -95z
" />
    <glyph glyph-name="starfighter" unicode="&#xe037;" horiz-adv-x="640" 
d="M208 160c9 0 16 -7 16 -16v-192c0 -9 -7 -16 -16 -16h-16c-9 0 -16 7 -16 16v16l-128 51v-3c0 -5 -2 -9 -6 -12c-3 -3 -8 -5 -13 -4c-7 2 -13 9 -13 17v271h-8c-4 0 -8 4 -8 8v16c0 4 4 8 8 8h8v16c0 5 2 9 6 12c3 3 8 5 13 4c7 -2 13 -9 13 -17v-15h8c4 0 8 -4 8 -8v-16
c0 -4 -4 -8 -8 -8h-8v-192h80v48c0 9 7 16 16 16h64zM632 320c4 0 8 -4 8 -8v-16c0 -4 -4 -8 -8 -8h-8v-272c0 -5 -2 -9 -6 -12c-3 -3 -8 -5 -13 -4c-7 2 -13 9 -13 17v2l-128 -51v-16c0 -9 -7 -16 -16 -16h-16c-9 0 -16 7 -16 16v192c0 9 7 16 16 16h64c9 0 16 -7 16 -16
v-48h80v192h-8c-4 0 -8 4 -8 8v16c0 4 4 8 8 8h8v16c0 5 2 9 6 12c3 3 8 5 13 4c7 -2 13 -9 13 -17v-15h8zM338 448c8 0 15 -6 16 -14l30 -242v-208c0 -9 -7 -16 -16 -16h-96c-9 0 -16 7 -16 16v208l30 242c1 8 8 14 16 14h36zM352 144v48c0 18 -14 32 -32 32
s-32 -14 -32 -32v-48c0 -9 7 -16 16 -16h32c9 0 16 7 16 16z" />
    <glyph glyph-name="starfighter-twin-ion-engine" unicode="&#xe038;" horiz-adv-x="576" 
d="M560 416c9 0 16 -7 16 -16v-416c0 -9 -7 -16 -16 -16h-32c-9 0 -16 7 -16 16v168l-75 -19c-24 -59 -82 -101 -149 -101s-125 42 -149 101l-75 19v-168c0 -9 -7 -16 -16 -16h-32c-9 0 -16 7 -16 16v416c0 9 7 16 16 16h32c9 0 16 -7 16 -16v-168l75 19
c24 59 82 101 149 101s125 -42 149 -101l75 -19v168c0 9 7 16 16 16h32zM300 287v-32c9 -2 17 -5 24 -10l23 22c-14 11 -30 18 -47 20zM276 287c-17 -2 -33 -9 -47 -20l23 -22c7 5 15 8 24 10v32zM213 251c-11 -14 -18 -30 -20 -47h32c2 9 5 17 10 24zM193 180
c2 -17 9 -33 20 -47l22 23c-5 7 -8 15 -10 24h-32zM276 97v32c-9 2 -17 5 -24 10l-23 -22c14 -11 30 -18 47 -20zM256 192c0 -18 14 -32 32 -32s32 14 32 32s-14 32 -32 32s-32 -14 -32 -32zM300 97c17 2 33 9 47 20l-23 22c-7 -5 -15 -8 -24 -10v-32zM363 133
c11 14 18 30 20 47h-32c-2 -9 -5 -17 -10 -24zM351 204h32c-2 17 -9 33 -20 47l-22 -23c5 -7 8 -15 10 -24z" />
    <glyph glyph-name="starship" unicode="&#xe039;" horiz-adv-x="640" 
d="M448 384c106 0 192 -86 192 -192s-86 -192 -192 -192s-192 86 -192 192s86 192 192 192zM448 128c35 0 64 29 64 64s-29 64 -64 64s-64 -29 -64 -64s29 -64 64 -64zM448 224c18 0 32 -14 32 -32s-14 -32 -32 -32s-32 14 -32 32s14 32 32 32zM240 320
c0 -18 -14 -32 -32 -32h-67l63 -51l25 2c-3 -16 -5 -31 -5 -47s2 -31 5 -47l-25 2l-63 -51h67c18 0 32 -14 32 -32s-14 -32 -32 -32h-184c-13 0 -24 11 -24 24v16c0 13 11 24 24 24h41l71 57l-5 1c-20 2 -35 18 -35 38s15 36 35 38l5 1l-71 57h-41c-13 0 -24 11 -24 24v16
c0 13 11 24 24 24h184c18 0 32 -14 32 -32z" />
    <glyph glyph-name="starship-freighter" unicode="&#xe03a;" horiz-adv-x="576" 
d="M224 240c27 0 48 -22 48 -48s-22 -48 -48 -48s-48 22 -48 48s22 48 48 48zM560 224h-144v-64h144c9 0 16 -8 16 -16v-53c0 -6 -4 -13 -10 -15l-94 -34c10 -15 11 -33 2 -49c-8 -15 -24 -25 -42 -25h-64c-14 0 -28 6 -37 18l-3 4l-17 -6c-55 -21 -117 -22 -172 1
c-143 62 -139 207 -139 207s-4 145 139 207c55 23 117 22 172 1l255 -92c6 -2 10 -8 10 -15v-53c0 -8 -7 -16 -16 -16zM80 176c9 0 16 7 16 16s-7 16 -16 16s-16 -7 -16 -16s7 -16 16 -16zM112 80c9 0 16 7 16 16s-7 16 -16 16s-16 -7 -16 -16s7 -16 16 -16zM112 272
c9 0 16 7 16 16s-7 16 -16 16s-16 -7 -16 -16s7 -16 16 -16zM224 112c44 0 80 36 80 80s-36 80 -80 80s-80 -36 -80 -80s36 -80 80 -80z" />
    <glyph glyph-name="sword-laser" unicode="&#xe03b;" 
d="M9 36l80 79l90 -90l-79 -80c-13 -12 -33 -12 -45 0l-46 46c-12 12 -12 32 0 45zM106 121l22 22l79 -79l-22 -23zM196 211l79 -79c3 -3 3 -8 0 -11l-11 -12c-3 -3 -8 -3 -11 0l-80 80c-3 3 -3 8 0 11l12 11c3 3 8 3 11 0zM139 155l23 22l79 -79l-22 -23zM505 441
c9 -9 9 -24 1 -33l-226 -246l-54 54l246 226c9 8 24 8 33 -1z" />
    <glyph glyph-name="sword-laser-alt" unicode="&#xe03c;" 
d="M128 87l23 -23l-108 -107l-22 22zM94 121l23 -23l-108 -107c-12 12 -12 32 0 45zM309 192c14 0 22 -17 11 -27l-124 -123l-90 90l55 55c3 3 7 5 11 5h137zM505 441c9 -9 9 -24 1 -33l-177 -192h-103l246 226c9 8 24 8 33 -1zM55 -55l107 108l23 -23l-85 -85
c-13 -12 -33 -12 -45 0z" />
    <glyph glyph-name="swords-laser" unicode="&#xe03d;" horiz-adv-x="640" 
d="M135 441c9 9 24 9 33 1l192 -177v-103l-226 246c-8 9 -8 24 1 33zM411 256l123 -124l-90 -90l-55 55c-3 3 -5 7 -5 11v137c0 14 17 21 27 11zM489 64l23 23l107 -108l-22 -22zM631 36c12 -13 12 -33 0 -45l-108 107l23 23zM455 30l23 23l107 -108c-12 -12 -32 -12 -45 0z
M256 135v93l43 -46zM401 293h-1c-6 0 -13 -1 -19 -4l-37 35l128 118c9 8 24 8 33 -1s9 -24 1 -33zM197 223c10 11 27 3 27 -11v-137c0 -4 -2 -8 -5 -11l-119 -119c-13 -12 -33 -12 -45 0l-46 46c-12 12 -12 32 0 45l114 113c-13 13 -13 33 0 45c12 13 32 13 45 0zM169 87
c8 0 16 8 16 16c0 9 -8 16 -16 16c-9 0 -16 -7 -16 -16c0 -8 7 -16 16 -16z" />
    <glyph glyph-name="telescope" unicode="&#xe03e;" horiz-adv-x="640" 
d="M639 231c0 -1 1 -4 1 -6c0 -6 -4 -12 -10 -15l-117 -48c-2 -1 -5 -2 -6 -2c-6 0 -13 5 -15 10l-86 207c0 2 -1 5 -1 6c0 6 4 13 10 15l117 49c2 0 5 1 6 1c6 0 13 -4 15 -10zM380 356l79 -189l-67 -23v0c0 -14 -7 -34 -16 -45l48 -142v-5c0 -9 -7 -16 -16 -16h-16
c-7 0 -14 5 -16 11l-42 126c-4 0 -10 -1 -14 -1s-10 1 -14 1l-42 -126c-2 -6 -9 -11 -16 -11h-16c-9 0 -16 7 -16 16v5l48 142c0 1 -1 1 -1 1l-127 -43c-8 -3 -18 0 -21 8l-9 21l-64 -26c-1 -1 -4 -2 -6 -2c-6 0 -12 5 -15 10l-20 49c0 1 -1 4 -1 6c0 6 4 12 10 15l64 26
l-9 21c-3 8 1 17 9 21zM320 120c13 0 24 11 24 24s-11 24 -24 24s-24 -11 -24 -24s11 -24 24 -24z" />
    <glyph glyph-name="temperature-arrow-down" unicode="&#xe03f;" 
d="M160 125c22 -8 35 -30 31 -53s-24 -40 -47 -40s-43 17 -47 40s9 45 31 53v19c0 9 7 16 16 16s16 -7 16 -16v-19zM256 336v-166c20 -25 32 -56 32 -90c0 -79 -65 -144 -144 -144s-144 65 -144 144c0 34 12 65 32 90v166c0 62 50 112 112 112s112 -50 112 -112zM220 55
c11 32 -1 68 -28 89v192c0 26 -22 48 -48 48s-48 -22 -48 -48v-192c-27 -21 -39 -57 -28 -89c11 -33 42 -55 76 -55s65 22 76 55zM500 105c14 -11 16 -31 5 -45l-64 -80c-6 -8 -15 -12 -25 -12s-19 4 -25 12l-64 80c-11 14 -9 34 5 45s34 9 45 -5l7 -9v293c0 18 14 32 32 32
s32 -14 32 -32v-293l7 9c11 14 31 16 45 5z" />
    <glyph glyph-name="temperature-arrow-up" unicode="&#xe040;" 
d="M160 125c22 -8 35 -30 31 -53s-24 -40 -47 -40s-43 17 -47 40s9 45 31 53v211c0 9 7 16 16 16s16 -7 16 -16v-211zM256 336v-166c20 -25 32 -56 32 -90c0 -79 -65 -144 -144 -144s-144 65 -144 144c0 34 12 65 32 90v166c0 62 50 112 112 112s112 -50 112 -112zM220 55
c11 32 -1 68 -28 89v192c0 26 -22 48 -48 48s-48 -22 -48 -48v-192c-27 -21 -39 -57 -28 -89c11 -33 42 -55 76 -55s65 22 76 55zM505 324c11 -14 9 -34 -5 -45c-6 -5 -13 -7 -20 -7c-9 0 -19 4 -25 12l-7 9v-293c0 -18 -14 -32 -32 -32s-32 14 -32 32v293l-7 -9
c-11 -14 -31 -16 -45 -5s-16 31 -5 45l64 80c12 15 38 15 50 0z" />
    <glyph glyph-name="trailer" unicode="&#xe041;" horiz-adv-x="640" 
d="M176 128c44 0 80 -36 80 -80s-36 -80 -80 -80s-80 36 -80 80s36 80 80 80zM176 16c18 0 32 14 32 32s-14 32 -32 32s-32 -14 -32 -32s14 -32 32 -32zM624 128c9 0 16 -7 16 -16v-32c0 -9 -7 -16 -16 -16h-338c-8 54 -54 96 -110 96s-102 -42 -110 -96h-34
c-18 0 -32 14 -32 32v288c0 18 14 32 32 32h480c18 0 32 -14 32 -32v-256h80zM96 204v140c0 4 -4 8 -8 8h-16c-4 0 -8 -4 -8 -8v-160c10 8 21 15 32 20zM192 223v121c0 4 -4 8 -8 8h-16c-4 0 -8 -4 -8 -8v-121c5 0 11 1 16 1s11 -1 16 -1zM288 184v160c0 4 -4 8 -8 8h-16
c-4 0 -8 -4 -8 -8v-140c11 -5 22 -12 32 -20zM384 128v216c0 4 -4 8 -8 8h-16c-4 0 -8 -4 -8 -8v-216h32zM480 128v216c0 4 -4 8 -8 8h-16c-4 0 -8 -4 -8 -8v-216h32z" />
    <glyph glyph-name="transporter" unicode="&#xe042;" 
d="M153 171c-12 -13 -32 -15 -46 -4c-13 12 -15 32 -4 46l71 84c12 15 30 23 49 23h66c19 0 37 -8 49 -23l71 -85c11 -13 9 -33 -5 -45c-13 -11 -33 -9 -45 4l-31 38v-177h-64v96h-16v-96h-64v177zM94 340c1 -1 2 -2 2 -4s-1 -3 -2 -4l-30 -12l-12 -30c-1 -1 -2 -2 -4 -2
s-3 1 -4 2l-12 30l-30 12c-1 1 -2 2 -2 4s1 3 2 4l30 12l12 30c1 1 2 2 4 2s3 -1 4 -2l12 -30zM256 352c-26 0 -48 22 -48 48s22 48 48 48s48 -22 48 -48s-22 -48 -48 -48zM384 0c18 0 32 -14 32 -32v-32h-320v32c0 18 14 32 32 32h256zM510 404c1 -1 2 -2 2 -4s-1 -3 -2 -4
l-30 -12l-12 -30c-1 -1 -2 -2 -4 -2s-3 1 -4 2l-12 30l-30 12c-1 1 -2 2 -2 4s1 3 2 4l30 12l12 30c1 1 2 2 4 2s3 -1 4 -2l12 -30z" />
    <glyph glyph-name="transporter-1" unicode="&#xe043;" 
d="M336 128c9 0 16 -7 16 -16s-7 -16 -16 -16h-160c-9 0 -16 7 -16 16s7 16 16 16h160zM336 64c9 0 16 -7 16 -16s-7 -16 -16 -16h-160c-9 0 -16 7 -16 16s7 16 16 16h160zM256 352c-26 0 -48 22 -48 48s22 48 48 48s48 -22 48 -48s-22 -48 -48 -48zM153 171
c-12 -13 -32 -15 -46 -4c-13 12 -15 32 -4 46l71 84c12 15 30 23 49 23h66c19 0 37 -8 49 -23l71 -85c11 -13 9 -33 -5 -45c-13 -11 -33 -9 -45 4l-31 38v-49h-144v49zM510 276c1 -1 2 -2 2 -4s-1 -3 -2 -4l-30 -12l-12 -30c-1 -1 -2 -2 -4 -2s-3 1 -4 2l-12 30l-30 12
c-1 1 -2 2 -2 4s1 3 2 4l30 12l12 30c1 1 2 2 4 2s3 -1 4 -2l12 -30zM384 0c18 0 32 -14 32 -32v-32h-320v32c0 18 14 32 32 32h256zM94 84c1 -1 2 -2 2 -4s-1 -3 -2 -4l-30 -12l-12 -30c-1 -1 -2 -2 -4 -2s-3 1 -4 2l-12 30l-30 12c-1 1 -2 2 -2 4s1 3 2 4l30 12l12 30
c1 1 2 2 4 2s3 -1 4 -2l12 -30z" />
    <glyph glyph-name="transporter-2" unicode="&#xe044;" 
d="M338 297l61 -73h-286l61 73c12 15 30 23 49 23h66c19 0 37 -8 49 -23zM112 160c-9 0 -16 7 -16 16s7 16 16 16h288c9 0 16 -7 16 -16s-7 -16 -16 -16h-288zM256 352c-26 0 -48 22 -48 48s22 48 48 48s48 -22 48 -48s-22 -48 -48 -48zM336 128c9 0 16 -7 16 -16
s-7 -16 -16 -16h-160c-9 0 -16 7 -16 16s7 16 16 16h160zM336 64c9 0 16 -7 16 -16s-7 -16 -16 -16h-160c-9 0 -16 7 -16 16s7 16 16 16h160zM384 0c18 0 32 -14 32 -32v-32h-320v32c0 18 14 32 32 32h256zM510 84c1 -1 2 -2 2 -4s-1 -3 -2 -4l-30 -12l-12 -30
c-1 -1 -2 -2 -4 -2s-3 1 -4 2l-12 30l-30 12c-1 1 -2 2 -2 4s1 3 2 4l30 12l12 30c1 1 2 2 4 2s3 -1 4 -2l12 -30zM94 404c1 -1 2 -2 2 -4s-1 -3 -2 -4l-30 -12l-12 -30c-1 -1 -2 -2 -4 -2s-3 1 -4 2l-12 30l-30 12c-1 1 -2 2 -2 4s1 3 2 4l30 12l12 30c1 1 2 2 4 2
s3 -1 4 -2l12 -30z" />
    <glyph glyph-name="transporter-3" unicode="&#xe045;" 
d="M94 308c1 -1 2 -2 2 -4s-1 -3 -2 -4l-30 -12l-12 -30c-1 -1 -2 -2 -4 -2s-3 1 -4 2l-12 30l-30 12c-1 1 -2 2 -2 4s1 3 2 4l30 12l12 30c1 1 2 2 4 2s3 -1 4 -2l12 -30zM144 224c-9 0 -16 7 -16 16s7 16 16 16h224c9 0 16 -7 16 -16s-7 -16 -16 -16h-224zM256 352
c-26 0 -48 22 -48 48s22 48 48 48s48 -22 48 -48s-22 -48 -48 -48zM176 288c-9 0 -16 7 -16 16s7 16 16 16h160c9 0 16 -7 16 -16s-7 -16 -16 -16h-160zM176 96c-9 0 -16 7 -16 16s7 16 16 16h160c9 0 16 -7 16 -16s-7 -16 -16 -16h-160zM400 192c9 0 16 -7 16 -16
s-7 -16 -16 -16h-288c-9 0 -16 7 -16 16s7 16 16 16h288zM510 404c1 -1 2 -2 2 -4s-1 -3 -2 -4l-30 -12l-12 -30c-1 -1 -2 -2 -4 -2s-3 1 -4 2l-12 30l-30 12c-1 1 -2 2 -2 4s1 3 2 4l30 12l12 30c1 1 2 2 4 2s3 -1 4 -2l12 -30zM384 0c18 0 32 -14 32 -32v-32h-320v32
c0 18 14 32 32 32h256zM176 32c-9 0 -16 7 -16 16s7 16 16 16h160c9 0 16 -7 16 -16s-7 -16 -16 -16h-160z" />
    <glyph glyph-name="transporter-empty" unicode="&#xe046;" horiz-adv-x="320" 
d="M288 0c18 0 32 -14 32 -32v-32h-320v32c0 18 14 32 32 32h256z" />
    <glyph glyph-name="ufo" unicode="&#xe047;" horiz-adv-x="640" 
d="M495 235c87 -23 145 -62 145 -107c0 -71 -143 -128 -320 -128s-320 57 -320 128c0 45 58 84 145 107c13 84 87 149 175 149s162 -65 175 -149zM128 88c13 0 24 11 24 24s-11 24 -24 24s-24 -11 -24 -24s11 -24 24 -24zM320 56c13 0 24 11 24 24s-11 24 -24 24
s-24 -11 -24 -24s11 -24 24 -24zM447 191c1 6 2 11 2 17c0 71 -58 128 -129 128s-129 -57 -129 -128c0 -6 1 -11 2 -17c79 -41 174 -41 254 0zM512 88c13 0 24 11 24 24s-11 24 -24 24s-24 -11 -24 -24s11 -24 24 -24z" />
    <glyph glyph-name="ufo-beam" unicode="&#xe048;" horiz-adv-x="576" 
d="M2 -34l80 161c15 -5 31 -9 46 -13c0 -2 -1 -4 -2 -6l-81 -163c-4 -8 -14 -11 -22 -7l-14 7c-8 4 -11 13 -7 21zM494 127l80 -161c4 -8 1 -17 -7 -21l-14 -7c-8 -4 -18 -1 -22 7l-81 163c-1 2 -2 4 -2 6c16 4 31 8 46 13zM576 240c0 -62 -129 -112 -288 -112
s-288 50 -288 112c0 41 57 76 141 96c18 64 77 112 147 112s129 -48 147 -112c84 -19 141 -55 141 -96zM96 216c13 0 24 11 24 24s-11 24 -24 24s-24 -11 -24 -24s11 -24 24 -24zM288 168c13 0 24 11 24 24s-11 24 -24 24s-24 -11 -24 -24s11 -24 24 -24zM392 282
c1 4 2 9 2 13c0 58 -48 105 -106 105s-106 -47 -106 -105c1 -4 1 -9 2 -13c32 -17 68 -26 104 -26s72 9 104 26zM480 216c13 0 24 11 24 24s-11 24 -24 24s-24 -11 -24 -24s11 -24 24 -24z" />
    <glyph glyph-name="user-alien" unicode="&#xe04a;" horiz-adv-x="448" 
d="M207 70c-42 32 -143 118 -143 204c0 108 72 174 160 174s160 -66 160 -174c0 -86 -101 -172 -143 -204c-10 -8 -24 -8 -34 0zM240 212v-8c0 -7 5 -12 12 -12h24c33 0 60 27 60 60v8c0 7 -5 12 -12 12h-24c-33 0 -60 -27 -60 -60zM112 252c0 -33 27 -60 60 -60h24
c7 0 12 5 12 12v8c0 33 -27 60 -60 60h-24c-7 0 -12 -5 -12 -12v-8zM320 95c71 -2 128 -60 128 -132c0 -15 -12 -27 -27 -27h-394c-15 0 -27 12 -27 27c0 72 57 130 128 132c21 -20 42 -37 59 -50c11 -9 24 -13 37 -13s26 4 37 12c17 14 38 31 59 51z" />
    <glyph glyph-name="user-robot" unicode="&#xe04b;" horiz-adv-x="448" 
d="M116 128c-20 0 -36 16 -36 36v175c0 25 20 45 45 45h83v48c0 9 7 16 16 16s16 -7 16 -16v-48h83c25 0 45 -20 45 -45v-175c0 -20 -16 -36 -36 -36h-216zM304 176v32h-32v-32h32zM288 320c-18 0 -32 -14 -32 -32s14 -32 32 -32s32 14 32 32s-14 32 -32 32zM176 176v32h-32
v-32h32zM208 208v-32h32v32h-32zM160 320c-18 0 -32 -14 -32 -32s14 -32 32 -32s32 14 32 32s-14 32 -32 32zM443 315c3 -4 5 -8 5 -13v-92c0 -5 -1 -10 -5 -13s-8 -5 -13 -5h-30v128h30c5 0 9 -2 13 -5zM272 0c9 0 16 -7 16 -16s-7 -16 -16 -16s-16 7 -16 16s7 16 16 16z
M352 96c53 0 96 -43 96 -96v-32c0 -18 -14 -32 -32 -32h-96v64c0 18 -14 32 -32 32h-128c-18 0 -32 -14 -32 -32v-64h-96c-18 0 -32 14 -32 32v32c0 53 43 96 96 96h256zM176 0c9 0 16 -7 16 -16v-48h-32v48c0 9 7 16 16 16zM18 192c-5 0 -10 1 -13 5s-5 8 -5 13v92
c0 5 1 10 5 13s8 5 13 5h30v-128h-30z" />
    <glyph glyph-name="user-visor" unicode="&#xe04c;" horiz-adv-x="448" 
d="M105 273c-14 4 -25 16 -25 31v64c0 18 14 32 32 32h13c23 29 59 48 99 48s76 -19 99 -48h13c18 0 32 -14 32 -32v-64c0 -15 -11 -27 -25 -31c-19 -47 -65 -81 -119 -81s-100 34 -119 81zM128 352v-32h192v32h-192zM275 144c95 0 173 -78 173 -173c0 -19 -16 -35 -35 -35
h-378c-19 0 -35 16 -35 35c0 95 78 173 173 173h102zM353 -16c2 1 3 2 3 4c-1 35 -11 66 -30 90c-1 1 -2 2 -3 2s-3 -1 -3 -2c-20 -23 -32 -52 -36 -89c0 -2 1 -3 2 -4s3 0 4 1c25 19 34 23 37 24c1 0 1 1 2 1c2 -2 7 -8 20 -25c1 -1 2 -2 3 -2h1z" />
    <glyph glyph-name="vacuum" unicode="&#xe04d;" horiz-adv-x="640" 
d="M143 192h66l-41 -192h8c9 0 16 -7 16 -16v-32c0 -9 -7 -16 -16 -16h-160c-9 0 -16 7 -16 16c0 26 22 48 48 48h54zM640 320c0 -53 -33 -98 -79 -117c10 -24 15 -49 15 -75v-128c0 -35 -29 -64 -64 -64h-128c-53 0 -96 43 -96 96c0 20 6 38 16 54c7 10 16 19 26 26
c7 4 14 8 22 10v166c0 18 14 32 32 32c54 0 105 -23 141 -62c32 7 54 36 50 69c-3 32 -30 57 -63 57h-210c-31 0 -56 -21 -63 -51l-23 -109h-66l27 123c12 59 65 101 125 101h210c71 0 128 -57 128 -128zM384 0c18 0 32 14 32 32s-14 32 -32 32s-32 -14 -32 -32
s14 -32 32 -32z" />
    <glyph glyph-name="vacuum-robot" unicode="&#xe04e;" 
d="M426 426c93 -94 93 -246 0 -340c-94 -93 -246 -93 -340 0c-93 94 -93 246 0 340c94 93 246 93 340 0zM203 117c7 6 7 16 0 22l-64 64c-6 6 -15 6 -22 0s-7 -16 0 -22l64 -64c3 -3 7 -5 11 -5s8 2 11 5zM283 133c7 6 7 16 0 22l-128 128c-6 6 -15 6 -22 0s-7 -16 0 -22
l128 -128c3 -3 7 -5 11 -5s8 2 11 5zM299 213c7 6 7 16 0 22l-64 64c-6 6 -15 6 -22 0s-7 -16 0 -22l64 -64c3 -3 7 -5 11 -5s8 2 11 5zM379 133c34 33 52 77 53 123c1 47 -18 91 -51 125c-34 33 -79 52 -125 51s-90 -19 -123 -53c-7 -6 -6 -15 0 -22s16 -7 22 0
c28 27 64 42 101 43c39 0 74 -15 102 -42c28 -28 42 -64 42 -102c0 -37 -16 -73 -43 -101c-7 -6 -7 -16 0 -22c3 -3 7 -5 11 -5s8 2 11 5z" />
    <glyph glyph-name="window-frame" unicode="&#xe04f;" 
d="M496 0c9 0 16 -7 16 -16v-32c0 -9 -7 -16 -16 -16h-480c-9 0 -16 7 -16 16v32c0 9 7 16 16 16h16v416c0 18 14 32 32 32h384c18 0 32 -14 32 -32v-416h16zM416 224v160h-144v-160h144zM96 384v-160h144v160h-144zM96 160v-160h144v160h-144zM272 0h144v160h-144v-160z
" />
    <glyph glyph-name="window-frame-open" unicode="&#xe050;" 
d="M480 416v-256h-448v256c0 18 14 32 32 32h384c18 0 32 -14 32 -32zM240 224v160h-144v-160h144zM416 224v160h-144v-160h144zM496 0c9 0 16 -7 16 -16v-32c0 -9 -7 -16 -16 -16h-480c-9 0 -16 7 -16 16v32c0 9 7 16 16 16h16v128h64v-128h320v128h64v-128h16z" />
    <glyph glyph-name="coffin-cross" unicode="&#xe051;" horiz-adv-x="384" 
d="M375 333c8 -8 11 -20 8 -31l-87 -342c-4 -14 -17 -24 -32 -24h-144c-15 0 -28 10 -32 24l-87 342c-3 11 0 23 8 31l108 106c6 6 15 9 23 9h104c8 0 17 -3 23 -9zM288 240v32c0 9 -7 16 -16 16h-48v48c0 9 -7 16 -16 16h-32c-9 0 -16 -7 -16 -16v-48h-48
c-9 0 -16 -7 -16 -16v-32c0 -9 7 -16 16 -16h48v-112c0 -9 7 -16 16 -16h32c9 0 16 7 16 16v112h48c9 0 16 7 16 16z" />
    <glyph glyph-name="folder-arrow-down" unicode="&#xe053;" 
d="M464 352c26 0 48 -22 48 -48v-288c0 -26 -22 -48 -48 -48h-416c-26 0 -48 22 -48 48v352c0 26 22 48 48 48h160l64 -64h192zM159 177c-9 -9 -9 -25 0 -34l80 -80c9 -9 25 -9 34 0l80 80c9 9 9 25 0 34s-25 9 -34 0l-39 -39v110c0 13 -11 24 -24 24s-24 -11 -24 -24v-110
l-39 39c-5 5 -11 7 -17 7s-12 -2 -17 -7z" />
    <glyph glyph-name="folder-arrow-up" unicode="&#xe054;" 
d="M464 352c26 0 48 -22 48 -48v-288c0 -26 -22 -48 -48 -48h-416c-26 0 -48 22 -48 48v352c0 26 22 48 48 48h160l64 -64h192zM353 143c9 9 9 25 0 34l-80 80c-9 9 -25 9 -34 0l-80 -80c-9 -9 -9 -25 0 -34s25 -9 34 0l39 39v-110c0 -13 11 -24 24 -24s24 11 24 24v110
l39 -39c5 -5 11 -7 17 -7s12 2 17 7z" />
    <glyph glyph-name="user-unlock" unicode="&#xe058;" horiz-adv-x="640" 
d="M592 160c26 0 48 -22 48 -48v-128c0 -26 -22 -48 -48 -48h-192c-26 0 -48 22 -48 48v128c0 26 22 48 48 48h16v80c0 47 40 84 88 80c42 -5 72 -43 72 -85v-11h-48v16c0 18 -14 32 -32 32s-32 -14 -32 -32v-80h128zM496 16c18 0 32 14 32 32s-14 32 -32 32
s-32 -14 -32 -32s14 -32 32 -32zM224 192c-71 0 -128 57 -128 128s57 128 128 128s128 -57 128 -128s-57 -128 -128 -128zM320 112v-128c0 -18 6 -35 16 -48h-301c-19 0 -35 16 -35 35c0 95 78 173 173 173h102c17 0 34 -3 49 -7c-2 -8 -4 -16 -4 -25z" />
    <glyph glyph-name="bacteria" unicode="&#xe059;" horiz-adv-x="640" 
d="M627 221l-11 -4c1 -17 -3 -28 -9 -49l11 -4c9 -3 14 -13 11 -22c-4 -9 -14 -14 -23 -11l-10 4c-7 -16 -15 -30 -23 -44l8 -7c8 -6 10 -17 4 -25c-5 -8 -17 -9 -25 -3l-8 6c-11 -13 -23 -25 -35 -35l6 -9c6 -8 4 -19 -3 -25c-8 -6 -20 -4 -25 4l-7 8
c-14 -9 -28 -17 -44 -23l4 -10c3 -9 -2 -20 -11 -23s-19 2 -23 11l-3 9c-11 -3 -22 -6 -33 -8c-6 -1 -11 -1 -17 -1l-3 -11c-2 -9 -12 -15 -22 -12c-9 2 -15 12 -12 21l3 11c-16 8 -29 20 -37 36l-11 -4c-10 -3 -19 3 -22 12c-3 10 2 19 12 22l12 4c-1 17 3 34 11 48l-9 9
c-8 6 -8 17 -2 25c7 7 18 7 25 1l10 -9c19 13 30 12 47 17l-4 9c-4 9 0 19 9 23s19 0 23 -9l4 -9c0 1 20 12 35 34l-9 4c-9 5 -13 15 -8 24c3 6 9 10 16 10c5 0 8 -2 16 -6c6 18 4 28 16 47l-9 9c-7 7 -7 18 0 25c10 10 22 4 26 0l8 -9c22 14 41 14 49 14l3 11
c2 8 9 13 17 13c15 0 19 -15 17 -22l-3 -11c16 -8 29 -21 37 -36l11 4c9 2 19 -2 22 -12s-2 -20 -12 -22zM416 32c18 0 32 14 32 32s-14 32 -32 32s-32 -14 -32 -32s14 -32 32 -32zM272 222c-9 -4 -19 0 -23 9l-4 9c0 -1 -20 -12 -35 -34l9 -4c9 -5 13 -15 8 -24
c-3 -6 -9 -10 -16 -10c-5 0 -8 2 -16 6c-6 -19 -4 -28 -16 -47l9 -9c7 -7 7 -18 0 -25c-10 -10 -22 -4 -26 0l-8 9c-22 -14 -41 -14 -49 -14l-3 -11c-2 -8 -9 -13 -17 -13c-15 0 -19 15 -17 22l3 11c-16 8 -29 21 -37 36l-11 -4c-9 -2 -19 2 -22 12s2 20 12 22l11 4
c-1 17 3 29 9 49l-11 4c-9 3 -14 13 -11 22s14 14 23 11l10 -3c7 15 14 30 23 43l-9 7c-7 6 -9 17 -3 25c5 8 17 9 24 3l9 -6c11 13 23 25 35 35l-6 9c-6 8 -4 19 3 25c8 6 19 4 25 -4l7 -8c14 9 28 17 44 23l-4 10c-3 9 2 20 11 23s19 -2 23 -11l3 -9c11 3 22 6 33 8
c6 1 11 1 17 1l3 11c2 9 12 15 21 12c10 -2 16 -12 13 -21l-3 -11c16 -8 28 -20 37 -36l11 4c10 3 19 -3 22 -12c3 -10 -2 -19 -12 -22l-12 -4c1 -17 -3 -34 -11 -48l9 -9c8 -6 8 -17 2 -25c-7 -7 -18 -7 -25 -1l-10 9c-19 -13 -30 -12 -47 -17l4 -9c4 -9 0 -19 -9 -23z
M128 192c18 0 32 14 32 32s-14 32 -32 32s-32 -14 -32 -32s14 -32 32 -32zM208 288c9 0 16 7 16 16s-7 16 -16 16s-16 -7 -16 -16s7 -16 16 -16z" />
    <glyph glyph-name="bacterium" unicode="&#xe05a;" horiz-adv-x="576" 
d="M543 345c4 -12 -3 -26 -16 -29l-16 -5c2 -23 -4 -45 -15 -64l13 -12c9 -9 10 -24 1 -33c-9 -10 -24 -10 -33 -2l-14 12c-13 -9 -28 -16 -45 -18c-5 -1 -11 -3 -16 -5l5 -12c6 -12 0 -26 -12 -31s-26 0 -31 12l-5 12c-1 0 -27 -15 -47 -45l12 -5c12 -6 17 -20 11 -32
c-4 -9 -12 -14 -21 -14c-7 0 -12 3 -22 8c-2 -6 -4 -13 -6 -20c-2 -16 -8 -29 -16 -42l13 -12c9 -10 8 -25 -1 -34c-13 -12 -28 -4 -34 1l-11 11c-29 -19 -55 -18 -65 -18l-4 -14c-3 -11 -12 -18 -23 -18c-20 0 -25 20 -23 30l4 14c-21 11 -38 27 -48 48l-16 -5
c-11 -3 -25 2 -29 16c-4 13 3 26 16 29l15 5c0 10 -1 24 11 66l-13 4c-13 5 -19 18 -15 30c4 13 18 19 30 15l13 -4c9 20 19 40 31 58l-11 8c-11 8 -13 23 -5 34c8 10 22 12 33 5l11 -8c14 17 30 33 47 47l-8 11c-8 10 -6 25 5 33c10 8 25 5 33 -5l8 -11c18 13 38 23 59 32
l-5 12c-4 13 2 26 15 30c12 5 26 -2 30 -14l4 -12c41 12 57 12 67 12l4 14c3 13 16 21 29 17c12 -3 20 -16 17 -29l-4 -14c20 -10 37 -27 48 -47l15 4c13 4 26 -3 30 -16zM192 80c26 0 48 22 48 48s-22 48 -48 48s-48 -22 -48 -48s22 -48 48 -48zM272 216c13 0 24 11 24 24
s-11 24 -24 24s-24 -11 -24 -24s11 -24 24 -24z" />
    <glyph glyph-name="box-tissue" unicode="&#xe05b;" 
d="M384 160h-256l-64 288h141c31 0 57 -19 67 -48s36 -48 67 -48h109zM0 -32v64h512v-64c0 -18 -14 -32 -32 -32h-448c-18 0 -32 14 -32 32zM480 224c18 0 32 -14 32 -32v-128h-512v128c0 18 14 32 32 32h49l14 -64h-15c-9 0 -16 -7 -16 -16s7 -16 16 -16h352
c9 0 16 7 16 16s-7 16 -16 16h-14l21 64h41z" />
    <glyph glyph-name="hand-holding-medical" unicode="&#xe05c;" horiz-adv-x="576" 
d="M568 112c13 -18 10 -43 -8 -56l-135 -100c-18 -13 -40 -20 -62 -20h-347c-9 0 -16 7 -16 16v96c0 9 7 16 16 16h55l47 38c21 17 47 26 74 26h160c19 0 35 -17 32 -37c-3 -16 -18 -27 -34 -27h-78c-9 0 -16 -7 -16 -16s7 -16 16 -16h121l119 88c18 13 43 10 56 -8z
M160 272c-9 0 -16 7 -16 16v64c0 9 7 16 16 16h64v64c0 9 7 16 16 16h64c9 0 16 -7 16 -16v-64h64c9 0 16 -7 16 -16v-64c0 -9 -7 -16 -16 -16h-64v-64c0 -9 -7 -16 -16 -16h-64c-9 0 -16 7 -16 16v64h-64z" />
    <glyph glyph-name="hand-sparkles" unicode="&#xe05d;" horiz-adv-x="640" 
d="M640 16v0c0 -2 -2 -5 -4 -6l-49 -21v0v0l-21 -49c-1 -2 -4 -4 -6 -4s-5 2 -6 4l-21 49v0l-49 21c-2 1 -4 4 -4 6v0v0c0 2 2 5 4 6l49 21v0l21 49c1 2 4 4 6 4s5 -2 6 -4l21 -49v0l49 -21c2 -1 4 -4 4 -6zM80 224c-2 0 -5 2 -6 4l-21 49v0l-49 21c-2 1 -4 4 -4 6v0v0
c0 2 2 5 4 6l49 21v0l21 49c1 2 4 4 6 4s5 -2 6 -4l21 -49v0l25 -11l3 -31l-28 -12v0v0l-21 -49c-1 -2 -4 -4 -6 -4zM470 -19h1l12 -5c-29 -25 -66 -40 -107 -40h-87c-54 0 -105 26 -136 70l-81 113c-12 17 -11 41 5 55c18 16 46 12 59 -7l45 -63c-2 44 -4 88 -9 131
l-12 121c-2 22 14 42 35 44c22 2 42 -14 44 -36l13 -120l3 -45c1 -4 4 -7 8 -7h1c4 0 8 4 8 8v208c0 23 20 42 44 40c20 -2 36 -21 36 -42v-206c0 -4 3 -8 8 -8c4 0 8 4 8 8v176c0 23 20 42 44 40c20 -2 36 -21 36 -42v-174c0 -4 3 -8 8 -8c4 0 8 4 8 8v110
c0 21 15 40 36 42c24 2 44 -17 44 -40v-188c-8 -4 -15 -10 -19 -17v-1v-1l-16 -38l-38 -16h-1h-1c-12 -7 -21 -21 -21 -35s9 -28 21 -35h1zM350 76c1 1 2 3 2 4s-1 3 -2 4l-30 12l-12 30c-1 1 -3 2 -4 2s-3 -1 -4 -2l-12 -30l-30 -12c-1 -1 -2 -3 -2 -4s1 -3 2 -4l30 -12
l12 -30c1 -1 3 -2 4 -2s3 1 4 2l12 30z" />
    <glyph glyph-name="hands-bubbles" unicode="&#xe05e;" horiz-adv-x="576" 
d="M416 384c-18 0 -32 14 -32 32s14 32 32 32s32 -14 32 -32s-14 -32 -32 -32zM519 112c12 0 22 -8 25 -19c2 -16 -9 -29 -24 -29h-160c-4 0 -8 -4 -8 -8s4 -8 8 -8h127c12 0 22 -8 25 -19c2 -16 -9 -29 -24 -29h-128c-4 0 -8 -4 -8 -8s4 -8 8 -8h95c12 0 22 -8 25 -19
c2 -16 -9 -29 -24 -29h-208c-23 0 -44 7 -62 18c4 9 6 19 6 30c0 39 -28 71 -64 78v26c0 53 34 101 85 118l108 33c13 4 26 -3 30 -16s-3 -26 -16 -30l-47 -17h199c12 0 22 -8 25 -19c2 -16 -9 -29 -24 -29h-128c-4 0 -8 -4 -8 -8s4 -8 8 -8h159zM311 270l-16 -5l21 66
c4 11 14 19 26 17c15 -2 25 -17 20 -31l-15 -48c-6 2 -12 3 -19 3c-6 0 -11 -1 -17 -2zM496 224c-26 0 -48 22 -48 48s22 48 48 48s48 -22 48 -48s-22 -48 -48 -48zM94 62c-37 21 -61 60 -62 105v113c0 13 12 23 25 23s24 -10 24 -24l2 -50l60 190c3 11 14 19 26 18
c15 -2 24 -17 20 -31l-39 -123c-1 -4 1 -8 6 -10c4 -1 8 1 10 6l48 151c3 11 14 19 25 18c16 -2 25 -17 21 -31l-44 -138c-1 -4 1 -9 5 -10c5 -1 9 1 10 5l34 107c3 11 14 18 26 17c15 -2 24 -17 20 -31l-34 -108l-74 -23c-64 -21 -107 -81 -107 -148v-26h-2zM112 32
c26 0 48 -22 48 -48s-22 -48 -48 -48s-48 22 -48 48s22 48 48 48z" />
    <glyph glyph-name="handshake-simple-slash" unicode="&#xe05f;" horiz-adv-x="640" 
d="M359 252l26 24c6 6 7 16 1 23c-6 6 -16 7 -23 1l-27 -25l-38 -35l25 -20l12 11l149 -122c7 -6 11 -15 11 -24l136 -106c10 -8 12 -23 4 -34c-8 -10 -23 -12 -34 -4l-592 464c-10 8 -12 23 -4 34c5 6 12 9 19 9c5 0 10 -2 15 -5l123 -96c35 23 77 37 121 37h6l-81 -74
l26 -20l93 86c6 5 14 8 22 8h9c57 0 113 -23 154 -64h96c18 0 32 -14 32 -32v-160c0 -17 -14 -32 -32 -32h-82c-2 15 -10 28 -22 38zM32 320h8l370 -290l-13 -16c-13 -16 -36 -19 -52 -6l-18 16v0c-23 -28 -63 -32 -90 -10l-91 82h-114c-18 0 -32 15 -32 32v160
c0 18 14 32 32 32z" />
    <glyph glyph-name="handshake-slash" unicode="&#xe060;" horiz-adv-x="640" 
d="M544 320h96v-256h-64c-18 0 -32 14 -32 32v224zM592 96c9 0 16 7 16 16s-7 16 -16 16s-16 -7 -16 -16s7 -16 16 -16zM0 320h40l56 -44v-180c0 -18 -14 -32 -32 -32h-64v256zM64 112c0 9 -7 16 -16 16s-16 -7 -16 -16s7 -16 16 -16s16 7 16 16zM128 96v155l282 -221
l-13 -16c-13 -16 -36 -19 -52 -6l-18 16v0c-23 -28 -63 -32 -90 -10l-91 82h-18zM495 85l136 -106c10 -8 12 -23 4 -34c-8 -10 -23 -12 -34 -4l-592 464c-10 8 -12 23 -4 34c5 6 12 9 19 9c5 0 10 -2 15 -5l123 -96c35 23 77 37 121 37h6l-81 -74l26 -20l93 86
c6 5 14 8 22 8h8c58 0 114 -23 155 -64v-193c-2 2 -5 5 -8 7l-146 118l27 24c6 6 7 16 1 23c-6 6 -17 7 -23 1l-65 -60l25 -20l12 11l149 -122c7 -6 11 -15 11 -24z" />
    <glyph glyph-name="head-side-cough" unicode="&#xe061;" horiz-adv-x="640" 
d="M608 88c13 0 24 -11 24 -24s-11 -24 -24 -24s-24 11 -24 24s11 24 24 24zM477 173c10 -21 -6 -45 -29 -45h-32v-32h-96c-18 0 -32 -14 -32 -32s14 -32 32 -32h96c0 -35 -29 -64 -64 -64h-64v-32h-224v177c-39 35 -64 86 -64 143c0 106 86 192 192 192h42
c68 0 132 -34 170 -88c25 -35 52 -140 73 -187zM336 224c18 0 32 14 32 32s-14 32 -32 32s-32 -14 -32 -32s14 -32 32 -32zM480 88c13 0 24 -11 24 -24s-11 -24 -24 -24s-24 11 -24 24s11 24 24 24zM608 136c-13 0 -24 11 -24 24s11 24 24 24s24 -11 24 -24s-11 -24 -24 -24
zM544 136c13 0 24 -11 24 -24s-11 -24 -24 -24s-24 11 -24 24s11 24 24 24zM544 40c13 0 24 -11 24 -24s-11 -24 -24 -24s-24 11 -24 24s11 24 24 24zM608 -8c13 0 24 -11 24 -24s-11 -24 -24 -24s-24 11 -24 24s11 24 24 24z" />
    <glyph glyph-name="head-side-cough-slash" unicode="&#xe062;" horiz-adv-x="640" 
d="M608 136c-13 0 -24 11 -24 24s11 24 24 24s24 -11 24 -24s-11 -24 -24 -24zM608 40c-13 0 -24 11 -24 24s11 24 24 24s24 -11 24 -24s-11 -24 -24 -24zM631 -21c10 -8 12 -23 4 -34c-8 -10 -23 -12 -34 -4l-592 464c-10 8 -12 23 -4 34c5 6 12 9 19 9c5 0 10 -2 15 -5
l41 -32c32 23 70 37 112 37h42c68 0 132 -34 170 -88c25 -35 52 -140 73 -187c10 -21 -6 -45 -29 -45h-7zM320 32h87l8 -6c-3 -33 -30 -58 -63 -58h-64v-32h-224v177c-39 35 -64 86 -64 143c0 29 7 56 18 81l308 -241h-6c-18 0 -32 -14 -32 -32s14 -32 32 -32zM544 88
c-13 0 -24 11 -24 24s11 24 24 24s24 -11 24 -24s-11 -24 -24 -24z" />
    <glyph glyph-name="head-side-mask" unicode="&#xe063;" 
d="M0 264c1 9 2 19 4 28l220 -161v-195h-160v177c-41 37 -66 91 -64 151zM336 80c-9 0 -16 -7 -16 -16s7 -16 16 -16h149l-10 -32h-139c-9 0 -16 -7 -16 -16s7 -16 16 -16h128l-1 -4c-9 -26 -34 -44 -61 -44h-146v192h256l-16 -48h-160zM509 173c2 -4 3 -9 3 -13h-273
l-226 164c29 73 104 124 187 124h66c68 0 132 -34 170 -88c25 -35 52 -140 73 -187zM352 224c18 0 32 14 32 32s-14 32 -32 32s-32 -14 -32 -32s14 -32 32 -32z" />
    <glyph glyph-name="head-side-virus" unicode="&#xe064;" 
d="M208 272c9 0 16 -7 16 -16s-7 -16 -16 -16s-16 7 -16 16s7 16 16 16zM272 208c9 0 16 -7 16 -16s-7 -16 -16 -16s-16 7 -16 16s7 16 16 16zM509 173c10 -21 -6 -45 -29 -45h-32v-64c0 -35 -29 -64 -64 -64h-64v-64h-256v177c-39 35 -64 86 -64 143c0 106 86 192 192 192
h74c69 0 132 -34 170 -88c25 -35 52 -140 73 -187zM368 208c9 0 16 7 16 16s-7 16 -16 16h-12c-29 0 -43 34 -23 55l9 8c6 6 6 17 0 23s-17 6 -23 0l-8 -9c-21 -20 -55 -6 -55 23v12c0 9 -7 16 -16 16s-16 -7 -16 -16v-12c0 -29 -34 -43 -55 -23l-8 9c-6 6 -17 6 -23 0
s-6 -17 0 -23l9 -8c20 -21 6 -55 -23 -55h-12c-9 0 -16 -7 -16 -16s7 -16 16 -16h12c29 0 43 -34 23 -55l-9 -8c-6 -6 -6 -17 0 -23c3 -3 7 -4 11 -4c5 0 9 1 12 4l8 9c21 20 55 6 55 -23v-12c0 -9 7 -16 16 -16s16 7 16 16v12c0 29 34 43 55 23l8 -9c3 -3 6 -4 11 -4
s9 1 12 4c6 6 6 17 0 23l-9 8c-20 21 -6 55 23 55h12z" />
    <glyph glyph-name="house-user" unicode="&#xe065;" horiz-adv-x="576" 
d="M565 216c7 -6 11 -15 11 -24c0 -18 -14 -32 -32 -32h-32v-160c0 -35 -29 -64 -64 -64h-320c-35 0 -64 29 -64 64v160h-32c-18 0 -32 14 -32 32c0 9 4 18 11 24l256 224c6 5 13 8 20 8c8 0 16 -2 22 -8l107 -93v53c0 9 7 16 16 16h64c9 0 16 -7 16 -16v-137zM288 256
c-35 0 -64 -29 -64 -64s29 -64 64 -64s64 29 64 64s-29 64 -64 64zM384 0c9 0 16 7 16 16c0 44 -36 80 -80 80h-64c-44 0 -80 -36 -80 -80c0 -9 7 -16 16 -16h192z" />
    <glyph glyph-name="house-laptop" unicode="&#xe066;" horiz-adv-x="640" 
d="M629 0c6 0 11 -5 11 -11v-10c0 -24 -19 -43 -43 -43h-298c-24 0 -43 19 -43 43v10c0 6 5 11 11 11h37v160c0 18 13 32 29 32h230c16 0 29 -14 29 -32v-160h37zM544 0v144h-192v-144h192zM272 160v-128h-160c-26 0 -48 22 -48 48v112h-32c-18 0 -32 14 -32 32
c0 9 4 17 10 23l208 192c6 6 14 9 22 9s16 -3 22 -9l90 -83v44c0 9 7 16 16 16h32c9 0 16 -7 16 -16v-103l54 -50c6 -6 10 -14 10 -23h-147c-18 0 -34 -8 -45 -21v37c0 9 -7 16 -16 16h-64c-9 0 -16 -7 -16 -16v-64c0 -9 7 -16 16 -16h64z" />
    <glyph glyph-name="lungs-virus" unicode="&#xe067;" horiz-adv-x="640" 
d="M196 4c9 -10 21 -15 33 -15c3 0 6 1 8 1c-12 -16 -31 -29 -52 -35l-60 -15c-63 -17 -125 27 -125 88c0 10 1 20 4 30c22 81 56 159 102 231c22 34 36 63 80 63c39 0 70 -29 70 -66v-28c-8 6 -17 8 -26 8c-13 0 -25 -4 -34 -14c-19 -18 -19 -49 0 -67l8 -9h-12
c-26 0 -48 -22 -48 -48s22 -48 48 -48h12l-8 -9c-19 -18 -19 -49 0 -67zM344 297c-7 4 -15 7 -24 7s-17 -3 -24 -7v135c0 9 7 16 16 16h16c9 0 16 -7 16 -16v-135zM422 26c-3 -3 -6 -4 -11 -4s-9 1 -12 4l-8 9c-21 20 -55 6 -55 -23v-12c0 -9 -7 -16 -16 -16s-16 7 -16 16
v12c0 29 -34 43 -55 23l-8 -9c-3 -3 -6 -4 -11 -4s-9 1 -12 4c-6 6 -6 17 0 23l9 8c20 21 6 55 -23 55h-12c-9 0 -16 7 -16 16s7 16 16 16h12c29 0 43 34 23 55l-9 8c-6 6 -6 17 0 23s17 6 23 0l8 -9c21 -20 55 -6 55 23v12c0 9 7 16 16 16s16 -7 16 -16v-12
c0 -29 34 -43 55 -23l8 9c6 6 17 6 23 0s6 -17 0 -23l-9 -8c-20 -21 -6 -55 23 -55h12c9 0 16 -7 16 -16s-7 -16 -16 -16h-12c-29 0 -43 -34 -23 -55l9 -8c6 -6 6 -17 0 -23zM288 144c9 0 16 7 16 16s-7 16 -16 16s-16 -7 -16 -16s7 -16 16 -16zM352 80c9 0 16 7 16 16
s-7 16 -16 16s-16 -7 -16 -16s7 -16 16 -16zM636 58c3 -10 4 -20 4 -30c0 -61 -62 -105 -125 -88l-60 16c-22 5 -40 18 -52 34h7c13 0 25 4 34 14c19 18 19 49 0 67l-8 9h12c26 0 48 22 48 48s-22 48 -48 48h-12l8 9c19 18 19 49 0 67c-9 10 -21 15 -33 15
c-10 0 -19 -3 -27 -8v27c0 37 31 66 70 66c44 0 58 -29 80 -63c46 -72 80 -150 102 -231z" />
    <glyph glyph-name="people-arrows-left-right" unicode="&#xe068;" horiz-adv-x="576" 
d="M96 144c0 -12 5 -24 14 -32l50 -48v-96c0 -18 -14 -32 -32 -32h-64c-18 0 -32 14 -32 32v128c-18 0 -32 14 -32 32v96c0 35 29 64 64 64h64c27 0 50 -17 59 -40c-1 -2 -4 -2 -5 -4l-72 -68c-9 -8 -14 -20 -14 -32zM480 320c-35 0 -64 29 -64 64s29 64 64 64
s64 -29 64 -64s-29 -64 -64 -64zM96 320c-35 0 -64 29 -64 64s29 64 64 64s64 -29 64 -64s-29 -64 -64 -64zM444 153c5 -5 5 -13 0 -18l-72 -68c-3 -3 -8 -4 -13 -2c-4 2 -7 6 -7 11v36h-128v-36c0 -5 -3 -9 -7 -11c-5 -2 -10 -1 -13 2l-72 68c-5 5 -5 13 0 18l72 68
c3 3 8 4 13 2c4 -2 7 -6 7 -11v-36h128v36c0 5 3 9 7 11c5 2 10 1 13 -2zM512 288c35 0 64 -29 64 -64v-96c0 -18 -14 -32 -32 -32v-128c0 -18 -14 -32 -32 -32h-64c-18 0 -32 14 -32 32v96l50 48c9 8 14 20 14 32s-5 24 -14 32l-72 68c-1 2 -4 2 -5 4c9 23 32 40 59 40h64z
" />
    <glyph glyph-name="plane-slash" unicode="&#xe069;" horiz-adv-x="640" 
d="M33 300c-2 8 2 16 9 19l321 -252l-70 -123c-3 -5 -9 -8 -14 -8h-66c-10 0 -18 10 -15 20l49 172h-103l-43 -58c-3 -4 -8 -6 -13 -6h-40c-10 0 -18 10 -15 20l31 108zM631 -21c10 -8 12 -23 4 -34c-8 -10 -23 -12 -34 -4l-592 464c-10 8 -12 23 -4 34c5 6 12 9 19 9
c5 0 10 -2 15 -5l199 -156l-40 141c-3 10 5 20 15 20h66c5 0 11 -4 14 -8l105 -184h114c35 0 96 -29 96 -64s-61 -64 -96 -64h-71z" />
    <glyph glyph-name="pump-medical" unicode="&#xe06a;" horiz-adv-x="384" 
d="M379 354c7 -6 7 -16 0 -23l-22 -22c-7 -7 -17 -7 -23 0l-43 43h-67v-32h-128v96c0 18 14 32 32 32h64c18 0 32 -14 32 -32h67c17 0 33 -7 45 -19zM236 288c33 0 60 -25 63 -58l21 -224c3 -38 -26 -70 -64 -70h-192c-38 0 -67 32 -64 70l21 224c3 33 30 58 63 58h152z
M240 115v26c0 8 -6 14 -13 14h-40v40c0 7 -6 13 -14 13h-26c-8 0 -14 -6 -14 -13v-40h-40c-7 0 -13 -6 -13 -14v-26c0 -8 6 -14 13 -14h40v-40c0 -7 6 -13 14 -13h26c8 0 14 6 14 13v40h40c7 0 13 6 13 14z" />
    <glyph glyph-name="pump-soap" unicode="&#xe06b;" horiz-adv-x="384" 
d="M236 288c33 0 60 -25 63 -58l21 -224c3 -38 -26 -70 -64 -70h-192c-38 0 -67 32 -64 70l21 224c3 33 30 58 63 58h152zM160 32c35 0 64 26 64 59c0 25 -38 75 -56 97c-4 5 -12 5 -17 0c-17 -22 -55 -72 -55 -97c0 -33 29 -59 64 -59zM379 354c7 -6 7 -16 0 -23l-22 -22
c-7 -7 -17 -7 -23 0l-43 43h-67v-32h-128v96c0 18 14 32 32 32h64c18 0 32 -14 32 -32h67c17 0 33 -7 45 -19z" />
    <glyph glyph-name="shield-virus" unicode="&#xe06c;" 
d="M288 192c9 0 16 -7 16 -16s-7 -16 -16 -16s-16 7 -16 16s7 16 16 16zM224 256c9 0 16 -7 16 -16s-7 -16 -16 -16s-16 7 -16 16s7 16 16 16zM466 364c18 -7 30 -25 30 -44c0 -221 -136 -345 -222 -380c-11 -5 -25 -5 -36 0c-108 44 -222 182 -222 380c0 19 12 37 30 44
l192 80c4 2 13 4 18 4s14 -2 18 -4zM384 192c9 0 16 7 16 16s-7 16 -16 16h-12c-29 0 -43 34 -23 55l9 8c6 6 6 17 0 23s-17 6 -23 0l-8 -9c-21 -20 -55 -6 -55 23v12c0 9 -7 16 -16 16s-16 -7 -16 -16v-12c0 -29 -34 -43 -55 -23l-8 9c-6 6 -17 6 -23 0s-6 -17 0 -23l9 -8
c20 -21 6 -55 -23 -55h-12c-9 0 -16 -7 -16 -16s7 -16 16 -16h12c29 0 43 -34 23 -55l-9 -8c-6 -6 -6 -17 0 -23c3 -3 6 -4 11 -4s9 1 12 4l8 9c21 20 55 6 55 -23v-12c0 -9 7 -16 16 -16s16 7 16 16v12c0 29 34 43 55 23l8 -9c3 -3 6 -4 11 -4s9 1 12 4c6 6 6 17 0 23l-9 8
c-20 21 -6 55 23 55h12z" />
    <glyph glyph-name="sink" unicode="&#xe06d;" 
d="M496 160c9 0 16 -7 16 -16v-32c0 -9 -7 -16 -16 -16h-480c-9 0 -16 7 -16 16v32c0 9 7 16 16 16h96v32h-64c-9 0 -16 7 -16 16v16c0 9 7 16 16 16h80c18 0 32 -14 32 -32v-48h64v188c0 47 31 89 77 98c61 12 115 -35 115 -94v-16c0 -9 -7 -16 -16 -16h-32
c-9 0 -16 7 -16 16v16c0 18 -14 32 -32 32s-32 -14 -32 -32v-192h64v48c0 18 14 32 32 32h80c9 0 16 -7 16 -16v-16c0 -9 -7 -16 -16 -16h-64v-32h96zM32 32v32h448v-32c0 -53 -43 -96 -96 -96h-256c-53 0 -96 43 -96 96z" />
    <glyph glyph-name="soap" unicode="&#xe06e;" 
d="M320 192c-35 0 -64 29 -64 64s29 64 64 64s64 -29 64 -64s-29 -64 -64 -64zM160 160h192c35 0 64 -29 64 -64s-29 -64 -64 -64h-192c-35 0 -64 29 -64 64s29 64 64 64zM384 384c-18 0 -32 14 -32 32s14 32 32 32s32 -14 32 -32s-14 -32 -32 -32zM208 352
c-26 0 -48 22 -48 48s22 48 48 48s48 -22 48 -48s-22 -48 -48 -48zM416 256c53 0 96 -43 96 -96v-128c0 -53 -43 -96 -96 -96h-320c-53 0 -96 43 -96 96v128c0 53 43 96 96 96h128c0 -25 10 -47 25 -64h-89c-53 0 -96 -43 -96 -96s43 -96 96 -96h192c53 0 96 43 96 96
c0 41 -26 76 -63 90c19 17 31 42 31 70z" />
    <glyph glyph-name="stopwatch-20" unicode="&#xe06f;" horiz-adv-x="448" 
d="M300 192v-96c0 -7 -5 -12 -12 -12s-12 5 -12 12v96c0 7 5 12 12 12s12 -5 12 -12zM432 144c0 -116 -95 -210 -211 -208c-114 2 -208 101 -205 214c3 102 78 185 176 200v34h-32c-9 0 -16 7 -16 16v32c0 9 7 16 16 16h128c9 0 16 -7 16 -16v-32c0 -9 -7 -16 -16 -16h-32
v-34c38 -6 72 -22 100 -45l24 25c7 6 17 6 23 0l23 -23c6 -6 6 -16 0 -23l-27 -26v-1c21 -32 33 -71 33 -113zM164 84c2 14 8 28 18 38c19 19 30 45 30 74c0 26 -22 48 -48 48s-48 -22 -48 -48c0 -11 9 -20 20 -20s20 9 20 20c0 9 16 11 16 -2c0 -16 -7 -32 -18 -44
c-19 -19 -30 -45 -30 -72v-14c0 -11 9 -20 20 -20h48c11 0 20 9 20 20s-9 20 -20 20h-28zM340 192c0 29 -23 52 -52 52s-52 -23 -52 -52v-96c0 -29 23 -52 52 -52s52 23 52 52v96z" />
    <glyph glyph-name="shop-slash" unicode="&#xe070;" horiz-adv-x="640" 
d="M24 333l98 -77h-90c-26 0 -41 28 -27 50zM320 64v37l64 -51v-82c0 -18 -14 -32 -32 -32h-256c-18 0 -32 14 -32 32v256h64v-160h192zM576 22l55 -43c10 -8 12 -23 4 -34c-8 -10 -23 -12 -34 -4l-592 464c-10 8 -12 23 -4 34c5 6 12 9 19 9c5 0 10 -2 15 -5l38 -30l14 21
c6 9 16 14 26 14h406c10 0 20 -5 26 -14l86 -128c14 -21 -2 -50 -27 -50h-331l43 -33v1h64v-52l128 -100v152h64v-202z" />
    <glyph glyph-name="store-slash" unicode="&#xe071;" horiz-adv-x="640" 
d="M160 64h207l154 -121c-7 -4 -16 -7 -25 -7h-352c-26 0 -48 22 -48 48v212l12 -3c5 -1 11 -1 16 -1c13 0 24 2 36 6v-134zM124 224c-4 0 -8 0 -12 1c-43 6 -68 47 -63 88l106 -83c-10 -4 -20 -6 -31 -6zM631 -21c10 -8 12 -23 4 -34c-8 -10 -23 -12 -34 -4l-592 464
c-10 8 -12 23 -4 34c5 6 12 9 19 9c5 0 10 -2 15 -5l56 -44l23 36c5 8 14 13 24 13h356c10 0 19 -5 24 -13l58 -91c29 -47 3 -112 -52 -119c-4 -1 -8 -1 -13 -1c-26 0 -49 11 -65 29c-16 -18 -39 -29 -65 -29s-49 11 -65 29c-6 -6 -12 -11 -19 -16l179 -140v101
c11 -4 23 -6 35 -6c6 0 11 0 17 1l12 3v-149z" />
    <glyph glyph-name="toilet-paper-slash" unicode="&#xe072;" horiz-adv-x="640" 
d="M64 256c0 15 1 29 3 43l315 -247c-3 -37 -13 -64 -23 -94c-4 -13 -16 -22 -30 -22h-281c-11 0 -19 11 -15 21c21 64 31 86 31 127v172zM631 -21c10 -8 12 -23 4 -34c-8 -10 -23 -12 -34 -4l-592 464c-10 8 -12 23 -4 34c5 6 12 9 19 9c5 0 10 -2 15 -5l57 -45
c17 31 39 50 64 50h285c-37 -38 -61 -108 -61 -192v-84l57 -44c-16 34 -25 79 -25 128c0 106 43 192 96 192s96 -86 96 -192c0 -100 -38 -182 -87 -191zM480 256c0 -35 14 -64 32 -64s32 29 32 64s-14 64 -32 64s-32 -29 -32 -64z" />
    <glyph glyph-name="users-slash" unicode="&#xe073;" horiz-adv-x="640" 
d="M512 288c-44 0 -80 36 -80 80s36 80 80 80s80 -36 80 -80s-36 -80 -80 -80zM490 256h62c49 0 88 -42 88 -93c0 -11 -8 -19 -18 -19h-199c20 24 33 54 33 88c0 5 -1 10 -2 16c11 5 23 8 36 8zM397 162l234 -183c10 -8 12 -23 4 -34c-8 -10 -23 -12 -34 -4l-592 464
c-10 8 -12 23 -4 34c5 6 12 9 19 9c5 0 10 -2 15 -5l29 -23c15 17 36 28 60 28c44 0 80 -36 80 -80c0 -17 -6 -33 -15 -46l41 -32c19 27 50 46 86 46c57 0 104 -47 104 -104c0 -27 -11 -51 -27 -70zM270 96h56l184 -144c-5 -9 -15 -16 -26 -16h-328c-15 0 -28 12 -28 27
c0 73 64 133 142 133zM187 205c5 -23 15 -44 30 -61h-199c-10 0 -18 8 -18 19c0 51 39 93 88 93h34z" />
    <glyph glyph-name="virus" unicode="&#xe074;" horiz-adv-x="576" 
d="M516 220c15 0 28 -12 28 -28s-13 -28 -28 -28h-22c-51 0 -76 -62 -40 -98l15 -15c11 -11 11 -29 0 -40c-6 -6 -13 -8 -20 -8s-15 2 -20 8l-15 15c-36 36 -98 11 -98 -40v-22c0 -15 -12 -28 -28 -28s-28 13 -28 28v22c0 51 -62 76 -98 40l-15 -15c-5 -6 -13 -8 -20 -8
s-14 2 -20 8c-11 11 -11 29 0 40l15 15c36 36 11 98 -40 98h-22c-15 0 -28 12 -28 28s13 28 28 28h22c51 0 76 62 40 98l-15 15c-11 11 -11 29 0 40s29 11 40 0l15 -15c36 -36 98 -11 98 40v22c0 15 12 28 28 28s28 -13 28 -28v-22c0 -51 62 -76 98 -40l15 15
c11 11 29 11 40 0s11 -29 0 -40l-15 -15c-36 -36 -11 -98 40 -98h22zM256 176c26 0 48 22 48 48s-22 48 -48 48s-48 -22 -48 -48s22 -48 48 -48zM336 120c13 0 24 11 24 24s-11 24 -24 24s-24 -11 -24 -24s11 -24 24 -24z" />
    <glyph glyph-name="virus-slash" unicode="&#xe075;" horiz-adv-x="640" 
d="M114 220c14 0 27 6 36 14l245 -192c-25 -5 -47 -26 -47 -56v-22c0 -15 -12 -28 -28 -28s-28 13 -28 28v22c0 51 -62 76 -98 40l-15 -15c-5 -6 -13 -8 -20 -8s-14 2 -20 8c-11 11 -11 29 0 40l15 15c36 36 11 98 -40 98h-22c-15 0 -28 12 -28 28s13 28 28 28h22zM631 -21
c10 -8 12 -23 4 -34c-8 -10 -23 -12 -34 -4l-592 464c-10 8 -12 23 -4 34c5 6 12 9 19 9c5 0 10 -2 15 -5l96 -75c1 1 2 3 4 5c11 11 29 11 40 0l15 -15c36 -36 98 -11 98 40v22c0 15 12 28 28 28s28 -13 28 -28v-22c0 -51 62 -76 98 -40l15 15c11 11 29 11 40 0
s11 -29 0 -40l-15 -15c-36 -36 -11 -98 40 -98h22c15 0 28 -12 28 -28s-13 -28 -28 -28h-22c-35 0 -57 -29 -56 -59zM334 211c1 4 2 9 2 13c0 26 -21 48 -48 48c-9 0 -16 -2 -23 -6z" />
    <glyph glyph-name="viruses" unicode="&#xe076;" horiz-adv-x="640" 
d="M346 235c-38 0 -57 -46 -30 -73l12 -12c8 -8 8 -21 0 -30c-4 -4 -9 -6 -15 -6s-11 2 -15 6l-12 12c-27 27 -73 8 -73 -30v-17c0 -11 -9 -21 -21 -21s-21 10 -21 21v16c0 38 -46 58 -73 31l-12 -12c-4 -4 -10 -6 -15 -6s-11 2 -15 6c-8 9 -8 22 0 30l12 12
c27 27 8 73 -30 73h-17c-11 0 -21 9 -21 21s10 21 21 21h16c38 0 58 46 31 73l-12 12c-8 8 -8 21 0 30c9 8 22 8 30 0l12 -12c27 -27 73 -8 73 30v17c0 11 9 21 21 21s21 -10 21 -21v-16c0 -38 46 -58 73 -31l12 12c8 8 21 8 30 0c8 -9 8 -22 0 -30l-12 -12
c-27 -27 -8 -73 30 -73h17c11 0 21 -9 21 -21s-10 -21 -21 -21h-17zM160 256c18 0 32 14 32 32s-14 32 -32 32s-32 -14 -32 -32s14 -32 32 -32zM240 224c9 0 16 7 16 16s-7 16 -16 16s-16 -7 -16 -16s7 -16 16 -16zM624 96c9 0 16 -7 16 -16s-7 -16 -16 -16h-12
c-29 0 -43 -34 -23 -55l9 -8c6 -6 6 -17 0 -23c-3 -3 -6 -4 -11 -4s-9 1 -12 4l-8 9c-21 20 -55 6 -55 -23v-12c0 -9 -7 -16 -16 -16s-16 7 -16 16v12c0 29 -34 43 -55 23l-8 -9c-3 -3 -6 -4 -11 -4s-9 1 -12 4c-6 6 -6 17 0 23l9 8c20 21 6 55 -23 55h-12
c-9 0 -16 7 -16 16s7 16 16 16h12c29 0 43 34 23 55l-9 8c-6 6 -6 17 0 23s17 6 23 0l8 -9c21 -20 55 -6 55 23v12c0 9 7 16 16 16s16 -7 16 -16v-12c0 -29 34 -43 55 -23l8 9c6 6 17 6 23 0s6 -17 0 -23l-9 -8c-20 -21 -6 -55 23 -55h12zM480 64c18 0 32 14 32 32
s-14 32 -32 32s-32 -14 -32 -32s14 -32 32 -32z" />
    <glyph glyph-name="vest" unicode="&#xe085;" horiz-adv-x="448" 
d="M437 208c7 -10 11 -23 11 -35v-205c0 -18 -14 -32 -32 -32h-192v224l74 221c-23 -12 -49 -19 -74 -19s-51 7 -74 19l57 -170l-13 -41c-1 -3 -2 -7 -2 -10v-224h-160c-18 0 -32 14 -32 32v205c0 12 4 25 11 35l53 80v128c0 18 14 32 32 32h32c5 0 9 -1 13 -4l25 -17
c35 -23 81 -23 116 0l25 17c4 3 8 4 13 4h32c18 0 32 -14 32 -32v-128zM131 77c7 6 6 15 0 22s-16 7 -22 0l-48 -48c-7 -6 -7 -16 0 -22c3 -3 7 -5 11 -5s8 2 11 5zM387 29c7 6 7 16 0 22l-48 48c-6 7 -15 6 -22 0s-7 -16 0 -22l48 -48c3 -3 7 -5 11 -5s8 2 11 5z" />
    <glyph glyph-name="vest-patches" unicode="&#xe086;" horiz-adv-x="448" 
d="M437 208c7 -10 11 -23 11 -35v-205c0 -18 -14 -32 -32 -32h-192v224l74 221c-23 -12 -49 -19 -74 -19s-51 7 -74 19l57 -170l-13 -41c-1 -3 -2 -7 -2 -10v-224h-160c-18 0 -32 14 -32 32v205c0 12 4 25 11 35l53 80v128c0 18 14 32 32 32h32c5 0 9 -1 13 -4l25 -17
c35 -23 81 -23 116 0l25 17c4 3 8 4 13 4h32c18 0 32 -14 32 -32v-128zM63 175l16 -15l-16 -15c-4 -5 -4 -13 0 -17c3 -3 6 -4 9 -4s6 1 9 4l15 15l15 -15c3 -3 6 -4 9 -4s6 1 8 4c5 4 5 12 0 17l-15 15l15 15c5 5 5 13 0 17c-4 5 -12 5 -17 0l-15 -15l-16 15
c-4 5 -12 5 -17 0c-4 -4 -4 -12 0 -17zM96 -8c22 0 40 18 40 40s-18 40 -40 40s-40 -18 -40 -40s18 -40 40 -40zM359 112c15 0 26 13 25 27c-1 13 -13 22 -26 22h-5v5c1 13 -9 25 -22 26c-14 1 -27 -10 -27 -25v-48c0 -4 3 -7 7 -7h48z" />
    <glyph glyph-name="0" unicode="&#xe089;" horiz-adv-x="320" 
d="M160 416c88 0 160 -72 160 -160v-128c0 -88 -72 -160 -160 -160s-160 72 -160 160v128c0 88 72 160 160 160zM224 128v128c0 35 -29 64 -64 64s-64 -29 -64 -64v-128c0 -35 29 -64 64 -64s64 29 64 64z" />
    <glyph glyph-name="1" unicode="&#xe08a;" horiz-adv-x="256" 
d="M256 16c0 -26 -21 -48 -48 -48h-160c-26 0 -48 22 -48 48s22 48 48 48h32v219l-7 -4c-23 -14 -53 -6 -66 16c-14 23 -6 53 16 66l80 48c15 9 34 9 49 1c15 -9 24 -25 24 -42v-304h32c27 0 48 -22 48 -48z" />
    <glyph glyph-name="2" unicode="&#xe08b;" horiz-adv-x="320" 
d="M320 16c0 -26 -21 -48 -48 -48h-224c-20 0 -37 12 -45 30c-7 18 -2 39 12 53l173 166c12 11 18 26 18 42c0 17 -6 32 -18 43c-25 24 -65 24 -89 0l-16 -16c-18 -20 -48 -21 -68 -3c-19 18 -20 48 -2 68l17 18c63 62 164 62 225 2c31 -30 47 -69 47 -111
c0 -43 -16 -82 -47 -112l-87 -84h104c27 0 48 -21 48 -48z" />
    <glyph glyph-name="3" unicode="&#xe08c;" horiz-adv-x="320" 
d="M320 112c0 -79 -65 -144 -144 -144h-61c-51 0 -96 32 -113 81c-8 25 6 52 31 61c25 8 52 -6 61 -31c3 -9 11 -15 21 -15h61c26 0 48 22 48 48s-22 48 -48 48h-80c-19 0 -37 12 -44 30c-8 18 -4 38 10 52l78 78h-92c-26 0 -48 22 -48 48s22 48 48 48h208
c19 0 37 -12 44 -30c8 -18 4 -38 -10 -52l-82 -82c64 -14 112 -72 112 -140z" />
    <glyph glyph-name="4" unicode="&#xe08d;" horiz-adv-x="384" 
d="M384 112c0 -26 -21 -48 -48 -48h-16v-48c0 -26 -21 -48 -48 -48s-48 22 -48 48v48h-176c-16 0 -31 8 -40 22s-10 30 -4 45l112 256c11 25 39 36 63 25c25 -11 36 -39 25 -63l-83 -189h103v80c0 26 21 48 48 48s48 -22 48 -48v-80h16c27 0 48 -22 48 -48z" />
    <glyph glyph-name="5" unicode="&#xe08e;" horiz-adv-x="320" 
d="M320 112c0 -79 -65 -144 -144 -144h-61c-51 0 -96 32 -113 81c-8 25 6 52 31 61c25 8 52 -6 61 -31c3 -9 11 -15 21 -15h61c26 0 48 22 48 48s-22 48 -48 48h-128c-14 0 -28 6 -37 18c-9 11 -13 25 -10 39l32 160c4 23 24 39 47 39h160c27 0 48 -22 48 -48
s-21 -48 -48 -48h-121l-12 -64h69c79 0 144 -65 144 -144z" />
    <glyph glyph-name="6" unicode="&#xe08f;" horiz-adv-x="320" 
d="M160 -32c-88 0 -160 72 -160 160c0 35 11 69 32 97c3 3 -7 -9 139 173c9 12 23 18 37 18c11 0 21 -3 30 -11c21 -16 24 -46 7 -67l-44 -56c68 -18 119 -80 119 -154c0 -88 -72 -160 -160 -160zM224 128c0 35 -29 64 -64 64c-28 0 -53 -19 -61 -46c-2 -6 -3 -12 -3 -18
c0 -35 29 -64 64 -64s64 29 64 64z" />
    <glyph glyph-name="7" unicode="&#xe090;" horiz-adv-x="320" 
d="M314 345l-192 -352c-9 -16 -25 -25 -42 -25c-8 0 -16 2 -23 6c-23 13 -32 42 -19 65l153 281h-143c-26 0 -48 22 -48 48s22 48 48 48h224c17 0 33 -9 41 -23s9 -33 1 -48z" />
    <glyph glyph-name="8" unicode="&#xe091;" horiz-adv-x="320" 
d="M279 201c25 -24 41 -59 41 -97c0 -75 -61 -136 -136 -136h-48c-75 0 -136 61 -136 136c0 38 16 73 41 97c-15 23 -25 50 -25 79c0 75 61 136 136 136h16c75 0 136 -61 136 -136c0 -29 -10 -56 -25 -79zM152 320c-22 0 -40 -18 -40 -40s18 -40 40 -40h16c22 0 40 18 40 40
s-18 40 -40 40h-16zM184 64c22 0 40 18 40 40s-18 40 -40 40h-48c-22 0 -40 -18 -40 -40s18 -40 40 -40h48z" />
    <glyph glyph-name="9" unicode="&#xe092;" horiz-adv-x="320" 
d="M160 416c88 0 160 -72 160 -160c0 -35 -11 -69 -32 -97c-3 -3 7 9 -139 -173c-9 -12 -23 -18 -37 -18c-11 0 -21 3 -30 11c-21 16 -24 46 -7 67l44 56c-68 18 -119 80 -119 154c0 88 72 160 160 160zM96 256c0 -35 29 -64 64 -64c28 0 53 19 61 46c2 6 3 12 3 18
c0 35 -29 64 -64 64s-64 -29 -64 -64z" />
    <glyph glyph-name="a" unicode="&#xe093;" horiz-adv-x="384" 
d="M380 34c10 -24 -1 -52 -26 -62c-6 -3 -12 -4 -18 -4c-19 0 -37 11 -44 30l-14 34h-172l-14 -34c-10 -25 -38 -36 -62 -26c-25 10 -36 38 -26 62l144 352c7 18 25 30 44 30s37 -12 44 -30zM146 128h92l-46 113z" />
    <glyph glyph-name="alt" unicode="&#xe094;" 
d="M480 64c18 0 32 -14 32 -32v-32c0 -18 -14 -32 -32 -32h-128c-18 0 -32 14 -32 32v32c0 18 14 32 32 32h128zM480 416c18 0 32 -14 32 -32v-32c0 -18 -14 -32 -32 -32h-72l-241 -332c-9 -13 -24 -20 -39 -20h-96c-18 0 -32 14 -32 32v32c0 18 14 32 32 32h72l241 332
c9 13 24 20 39 20h96z" />
    <glyph glyph-name="ampersand" unicode="&#xe095;" horiz-adv-x="384" 
d="M374 35c14 -16 13 -42 -3 -57c-8 -7 -17 -10 -27 -10c-11 0 -22 4 -30 13l-34 38c-26 -32 -65 -51 -107 -51h-57c-64 0 -116 52 -116 116c0 35 16 68 43 90l55 44l-20 22c-19 21 -30 48 -30 76c0 55 45 100 100 100h40c55 0 100 -45 100 -100c0 -30 -14 -58 -37 -77
l-37 -30zM148 336c-11 0 -20 -9 -20 -20c0 -8 3 -16 9 -22l23 -26l41 33c4 4 7 9 7 15c0 11 -9 20 -20 20h-40zM220 72c1 3 3 5 5 7l-73 80l-59 -47c-8 -7 -13 -17 -13 -28c0 -20 16 -36 36 -36h57c19 0 36 9 47 24zM377 161l-32 -47l-56 61l22 32c12 18 37 23 56 10
c18 -12 23 -37 10 -56z" />
    <glyph glyph-name="arrow-down-left-and-arrow-up-right-to-center" unicode="&#xe096;" 
d="M208 185c9 0 17 -3 23 -9s9 -14 9 -23v-144c0 -8 -7 -16 -16 -16h-32c-8 0 -16 8 -16 16v67l-114 -115c-13 -12 -33 -12 -46 0v0c-12 13 -12 33 0 46l115 114h-67c-8 0 -16 8 -16 16v32c0 9 8 16 16 16h144zM304 217c-8 0 -16 4 -22 10s-10 14 -10 22v144c0 9 8 16 16 16
h32c9 0 16 -7 16 -16v-66l115 114c13 13 33 13 45 0v0c13 -12 13 -32 0 -45l-114 -115h66c9 0 16 -7 16 -16v-32c0 -8 -7 -16 -16 -16h-144z" />
    <glyph glyph-name="arrow-down-to-square" unicode="&#xe097;" horiz-adv-x="448" 
d="M384 320c35 0 64 -29 64 -64v-256c0 -35 -29 -64 -64 -64h-320c-35 0 -64 29 -64 64v256c0 35 29 64 64 64h48c9 0 16 -7 16 -16v-32c0 -9 -7 -16 -16 -16h-48v-256h320v256h-48c-9 0 -16 7 -16 16v32c0 9 7 16 16 16h48zM199 76l-64 80c-11 14 -9 34 5 45s34 9 45 -5
l7 -9v229c0 18 14 32 32 32s32 -14 32 -32v-229l7 9c11 14 31 16 45 5s16 -31 5 -45l-64 -80c-6 -8 -15 -12 -25 -12s-19 4 -25 12z" />
    <glyph glyph-name="arrow-up-arrow-down" unicode="&#xe098;" horiz-adv-x="384" 
d="M204 105c14 11 34 9 45 -5l7 -9v293c0 18 14 32 32 32s32 -14 32 -32v-293l7 9c11 14 31 16 45 5s16 -31 5 -45l-64 -80c-6 -8 -15 -12 -25 -12s-19 4 -25 12l-64 80c-11 14 -9 34 5 45zM12 279c-14 11 -16 31 -5 45l64 80c12 15 38 15 50 0l64 -80c11 -14 9 -34 -5 -45
s-34 -9 -45 5l-7 9v-293c0 -18 -14 -32 -32 -32s-32 14 -32 32v293l-7 -9c-6 -8 -16 -12 -25 -12c-7 0 -14 2 -20 7z" />
    <glyph glyph-name="arrow-up-from-square" unicode="&#xe099;" horiz-adv-x="448" 
d="M384 288c35 0 64 -29 64 -64v-224c0 -35 -29 -64 -64 -64h-320c-35 0 -64 29 -64 64v224c0 35 29 64 64 64h16c9 0 16 -7 16 -16v-32c0 -9 -7 -16 -16 -16h-16v-224h320v224h-16c-9 0 -16 7 -16 16v32c0 9 7 16 16 16h16zM185 316c-11 -14 -31 -16 -45 -5s-16 31 -5 45
l64 80c12 15 38 15 50 0l64 -80c11 -14 9 -34 -5 -45c-6 -5 -13 -7 -20 -7c-9 0 -19 4 -25 12l-7 9v-197c0 -18 -14 -32 -32 -32s-32 14 -32 32v197z" />
    <glyph glyph-name="arrow-up-right-and-arrow-down-left-from-center" unicode="&#xe09a;" 
d="M32 -64c-9 0 -17 4 -23 9c-5 6 -9 14 -9 23v144c0 9 7 16 16 16h32c9 0 16 -7 16 -16v-67l115 115c12 12 32 12 45 0v0c13 -13 13 -33 0 -45l-115 -115h67c9 0 16 -7 16 -16v-32c0 -9 -7 -16 -16 -16h-144zM480 448c9 0 17 -4 23 -9c5 -6 9 -14 9 -23v-144
c0 -9 -7 -16 -16 -16h-32c-9 0 -16 7 -16 16v67l-115 -115c-12 -13 -32 -13 -45 0v0c-13 13 -13 33 0 45l115 115h-67c-9 0 -16 7 -16 16v32c0 9 7 16 16 16h144z" />
    <glyph glyph-name="arrows-minimize" unicode="&#xe09b;" 
d="M192 160c9 0 17 -4 23 -9c6 -6 9 -14 9 -23v-144c0 -9 -7 -16 -16 -16h-32c-8 0 -16 7 -16 16v67l-98 -99c-13 -12 -33 -13 -46 0v0c-12 12 -12 33 0 45l99 99h-67c-8 0 -16 7 -16 16v32c0 9 8 16 16 16h144zM208 416c9 0 16 -7 16 -16v-144c0 -9 -3 -17 -9 -23
c-6 -5 -14 -9 -23 -9h-144c-8 0 -16 7 -16 16v32c0 9 8 16 16 16h67l-99 99c-12 12 -12 32 0 45v0c13 13 33 13 46 0l98 -99v67c0 9 8 16 16 16h32zM320 224c-8 0 -16 4 -22 9c-6 6 -10 14 -10 23v144c0 9 8 16 16 16h32c9 0 16 -7 16 -16v-67l99 99c13 13 33 13 45 0v0
c13 -12 13 -33 0 -45l-98 -99h66c9 0 16 -7 16 -16v-32c0 -9 -7 -16 -16 -16h-144zM398 96l98 -99c13 -12 13 -32 0 -45v0c-12 -13 -32 -13 -45 0l-99 99v-67c0 -9 -7 -16 -16 -16h-32c-8 0 -16 7 -16 16v144c0 9 4 17 10 23c6 5 14 9 22 9h144c9 0 16 -7 16 -16v-32
c0 -9 -7 -16 -16 -16h-66z" />
    <glyph glyph-name="austral-sign" unicode="&#xe09c;" horiz-adv-x="448" 
d="M432 160h-72l12 -32h60c9 0 16 -7 16 -16v-32c0 -9 -7 -16 -16 -16h-37l19 -53c8 -21 -8 -43 -30 -43h-17c-13 0 -25 8 -30 21l-27 75h-172l-27 -75c-5 -13 -17 -21 -30 -21h-17c-22 0 -38 22 -30 43l19 53h-37c-9 0 -16 7 -16 16v32c0 9 7 16 16 16h60l12 32h-72
c-9 0 -16 7 -16 16v32c0 9 7 16 16 16h95l60 166c5 15 20 26 37 26h32c17 0 32 -11 37 -26l60 -166h95c9 0 16 -7 16 -16v-32c0 -9 -7 -16 -16 -16zM224 303l-29 -79h58zM287 128l-11 32h-104l-11 -32h126z" />
    <glyph glyph-name="b" unicode="&#xe09d;" horiz-adv-x="320" 
d="M279 201c25 -24 41 -59 41 -97c0 -75 -61 -136 -136 -136h-136c-27 0 -48 21 -48 48v176v176c0 27 21 48 48 48h120c75 0 136 -61 136 -136c0 -29 -10 -56 -25 -79zM96 320v-80h72c22 0 40 18 40 40s-18 40 -40 40h-72zM184 64c22 0 40 18 40 40s-18 40 -40 40h-16h-72
v-80h88z" />
    <glyph glyph-name="baht-sign" unicode="&#xe09e;" horiz-adv-x="320" 
d="M272 215c29 -22 48 -56 48 -95c0 -66 -54 -120 -120 -120h-24v-48c0 -9 -7 -16 -16 -16h-32c-9 0 -16 7 -16 16v48h-80c-18 0 -32 14 -32 32v320c0 18 14 32 32 32h80v48c0 9 7 16 16 16h32c9 0 16 -7 16 -16v-48c62 0 112 -50 112 -112c0 -21 -6 -40 -16 -57zM208 272
c0 18 -14 32 -32 32v-64c18 0 32 14 32 32zM112 304h-32v-64h32v64zM80 80h32v80h-32v-80zM200 80c22 0 40 18 40 40s-18 40 -40 40h-24v-80h24z" />
    <glyph glyph-name="basket-shopping-simple" unicode="&#xe09f;" horiz-adv-x="576" 
d="M560 256c9 0 16 -7 16 -16v-32c0 -9 -7 -16 -16 -16h-23l-46 -206c-6 -29 -32 -50 -62 -50h-282c-30 0 -56 21 -62 50l-46 206h-23c-9 0 -16 7 -16 16v32c0 9 7 16 16 16h102l93 179c6 12 20 16 32 10s16 -20 10 -32l-81 -157h232l-81 157c-6 12 -2 26 10 32s26 2 32 -10
l93 -179h102zM144 152c13 0 24 11 24 24s-11 24 -24 24s-24 -11 -24 -24s11 -24 24 -24zM432 152c13 0 24 11 24 24s-11 24 -24 24s-24 -11 -24 -24s11 -24 24 -24z" />
    <glyph glyph-name="battery-exclamation" unicode="&#xe0a0;" horiz-adv-x="576" 
d="M0 288c0 35 29 64 64 64h128v-64h-128v-192h125c-8 -14 -13 -30 -13 -48c0 -5 1 -11 2 -16h-114c-35 0 -64 29 -64 64v192zM544 256c18 0 32 -14 32 -32v-64c0 -18 -14 -32 -32 -32v-32c0 -35 -29 -64 -64 -64h-114c1 5 2 11 2 16c0 18 -5 34 -13 48h125v192h-128v64h128
c35 0 64 -29 64 -64v-32zM272 128c-18 0 -32 14 -32 32v192c0 18 14 32 32 32s32 -14 32 -32v-192c0 -18 -14 -32 -32 -32zM272 88c22 0 40 -18 40 -40s-18 -40 -40 -40s-40 18 -40 40s18 40 40 40z" />
    <glyph glyph-name="battery-low" unicode="&#xe0a1;" horiz-adv-x="576" 
d="M144 256v-128h-48v128h48zM544 256c18 0 32 -14 32 -32v-64c0 -18 -14 -32 -32 -32v-32c0 -35 -29 -64 -64 -64h-416c-35 0 -64 29 -64 64v192c0 35 29 64 64 64h416c35 0 64 -29 64 -64v-32zM480 96v192h-416v-192h416z" />
    <glyph glyph-name="bee" unicode="&#xe0a2;" horiz-adv-x="576" 
d="M448 352c71 0 128 -50 128 -112v0c0 -58 -51 -106 -117 -111c1 6 2 12 2 18c0 16 -3 31 -7 45c32 3 58 24 58 48c0 26 -29 48 -64 48v0c-23 0 -50 -13 -75 -29c34 -26 56 -66 56 -112v0c0 -105 -141 -211 -141 -211s-141 106 -141 211v0c0 46 22 86 56 112
c-25 16 -52 29 -75 29v0c-35 0 -64 -22 -64 -48c0 -24 26 -45 58 -48c-4 -14 -7 -29 -7 -45c0 -6 1 -12 2 -18c-66 5 -117 53 -117 111v0c0 62 57 112 128 112v0c28 0 55 -9 81 -23c0 2 -6 32 19 60l-31 32c-7 6 -6 15 0 22s16 7 22 0l35 -35c10 5 20 8 34 8s24 -3 34 -8
l35 35c6 7 15 6 22 0s7 -16 0 -22l-31 -32c25 -28 19 -58 19 -60c26 14 53 23 81 23v0zM234 202c-3 -3 -6 -7 -8 -10h124c-2 3 -5 7 -8 10c-14 14 -33 22 -54 22v0c-21 0 -40 -8 -54 -22zM288 21c13 13 27 28 39 43h-78c12 -15 26 -30 39 -43zM356 112c5 11 8 22 8 32h-152
c0 -10 3 -21 8 -32h136z" />
    <glyph glyph-name="beer-mug" unicode="&#xe0a3;" 
d="M99 315c-10 -7 -22 -11 -35 -11c-40 0 -71 36 -63 78c5 23 24 42 47 48c18 4 35 1 49 -7c13 -8 29 -7 41 3c14 14 33 22 54 22s40 -8 54 -22c12 -10 28 -11 41 -3c14 8 31 11 49 7c23 -6 42 -25 47 -48c8 -42 -23 -78 -63 -78c-13 0 -25 4 -35 11c-12 8 -28 4 -38 -5
c-15 -14 -34 -22 -55 -22s-40 8 -54 22c-11 9 -27 13 -39 5zM416 288c44 0 80 -36 80 -80v-99c0 -32 -19 -60 -47 -73l-81 -36c0 -35 -29 -64 -64 -64h-224c-35 0 -64 29 -64 64v285c14 -8 31 -13 48 -13c18 0 36 5 51 15c0 0 0 -1 1 -1c20 -19 48 -30 76 -30s56 11 76 30
c1 0 1 1 1 1c15 -10 33 -15 51 -15c19 0 37 6 52 16h44zM144 16v192c0 9 -7 16 -16 16s-16 -7 -16 -16v-192c0 -9 7 -16 16 -16s16 7 16 16zM208 16v192c0 9 -7 16 -16 16s-16 -7 -16 -16v-192c0 -9 7 -16 16 -16s16 7 16 16zM272 16v192c0 9 -7 16 -16 16s-16 -7 -16 -16
v-192c0 -9 7 -16 16 -16s16 7 16 16zM432 109v99c0 9 -7 16 -16 16h-48v-154l55 24c5 3 9 9 9 15z" />
    <glyph glyph-name="bitcoin-sign" unicode="&#xe0a4;" horiz-adv-x="320" 
d="M320 120c0 -63 -50 -115 -112 -119v-49c0 -9 -7 -16 -16 -16h-32c-9 0 -16 7 -16 16v48h-32v-48c0 -9 -7 -16 -16 -16h-32c-9 0 -16 7 -16 16v48h-16c-18 0 -32 14 -32 32v320c0 18 14 32 32 32h16v48c0 9 7 16 16 16h32c9 0 16 -7 16 -16v-48h32v48c0 9 7 16 16 16h32
c9 0 16 -7 16 -16v-53c46 -14 80 -56 80 -107c0 -21 -6 -40 -16 -57c29 -22 48 -56 48 -95zM80 304v-64h96c18 0 32 14 32 32s-14 32 -32 32h-96zM200 80c22 0 40 18 40 40s-18 40 -40 40h-120v-80h120z" />
    <glyph glyph-name="book-font" unicode="&#xe0a5;" horiz-adv-x="448" 
d="M448 88c0 -10 -7 -19 -16 -22v-68c9 -3 16 -12 16 -22v-16c0 -13 -11 -24 -24 -24h-328c-53 0 -96 43 -96 96v320c0 53 43 96 96 96h328c13 0 24 -11 24 -24v-336zM130 183c-4 -8 -1 -17 7 -21s17 -1 21 7l28 55h108l28 -55c2 -6 8 -9 14 -9c2 0 5 1 7 2c8 4 11 13 7 21
l-96 192c-5 11 -23 11 -28 0zM384 0v64h-288c-18 0 -32 -14 -32 -32s14 -32 32 -32h288zM240 332l38 -76h-76z" />
    <glyph glyph-name="book-open-cover" unicode="&#xe0a6;" horiz-adv-x="640" 
d="M544 416v-333l-208 -46v384l171 27c19 3 37 -12 37 -32zM304 421v-384l-208 46v333c0 20 18 35 37 32zM600 415c20 5 40 -10 40 -31v-352c0 -15 -10 -28 -25 -31l-288 -64c-5 -1 -9 -1 -14 0l-288 64c-15 3 -25 16 -25 31v352c0 21 20 36 40 31l24 -6v-326
c0 -15 10 -28 25 -31l231 -51l231 51c15 3 25 16 25 31v326z" />
    <glyph glyph-name="bookmark-slash" unicode="&#xe0a7;" horiz-adv-x="640" 
d="M128 -64v315l231 -181zM631 -21c10 -8 12 -23 4 -34c-8 -10 -23 -12 -34 -4l-592 464c-10 8 -12 23 -4 34c5 6 12 9 19 9c5 0 10 -2 15 -5l89 -70v27c0 26 22 48 48 48h288c27 0 48 -22 48 -48v-328z" />
    <glyph glyph-name="bowling-ball-pin" unicode="&#xe0a8;" horiz-adv-x="576" 
d="M208 352c115 0 208 -93 208 -208s-93 -208 -208 -208s-208 93 -208 208s93 208 208 208zM123 203c14 0 26 12 26 26c0 15 -12 27 -26 27c-15 0 -27 -12 -27 -27c0 -14 12 -26 27 -26zM197 160c15 0 27 13 27 27s-12 26 -27 26c-14 0 -26 -11 -26 -26s12 -27 26 -27z
M197 248c15 0 27 13 27 27s-12 26 -27 26c-14 0 -26 -11 -26 -26s12 -27 26 -27zM522 288h-84c-6 25 -22 48 -22 88c0 48 32 72 64 72s64 -24 64 -72c0 -40 -16 -63 -22 -88zM522 256c7 -59 54 -117 54 -176c0 -53 -22 -96 -38 -127c-6 -10 -17 -17 -29 -17h-58
c-12 0 -23 7 -29 17c-7 14 -15 30 -22 48c30 40 48 89 48 143c0 30 -6 59 -16 85c3 9 5 18 6 27h84z" />
    <glyph glyph-name="box-circle-check" unicode="&#xe0a9;" horiz-adv-x="640" 
d="M415 349c-48 -7 -91 -29 -124 -61h-51v128h121c14 0 26 -9 30 -22zM208 288h-207c0 1 0 1 -1 1l57 105c4 13 16 22 30 22h121v-128zM448 320c106 0 192 -86 192 -192s-86 -192 -192 -192s-192 86 -192 192s86 192 192 192zM537 159c9 9 9 25 0 34s-25 9 -34 0l-79 -79
l-31 31c-9 9 -25 9 -34 0s-9 -25 0 -34l48 -48c5 -5 11 -7 17 -7s12 2 17 7zM264 256c-25 -36 -40 -80 -40 -128c0 -63 26 -119 67 -160h-243c-26 0 -48 22 -48 48v240h264z" />
    <glyph glyph-name="bracket-curly" unicode="&#xe0aa;" horiz-adv-x="256" 
d="M192 416c18 0 32 -14 32 -32v0c0 -18 -14 -32 -32 -32h-32c-18 0 -32 -14 -32 -32v-37c0 -26 -10 -50 -28 -68l-23 -23l23 -23c18 -18 28 -42 28 -67v-38c0 -18 14 -32 32 -32h32c18 0 32 -14 32 -32v0c0 -18 -14 -32 -32 -32h-32c-53 0 -96 43 -96 96v38
c0 8 -3 16 -9 22l-46 45c-12 13 -12 33 0 46l46 45c6 6 9 14 9 22v38c0 53 43 96 96 96h32z" />
    <glyph glyph-name="bracket-round" unicode="&#xe0ab;" horiz-adv-x="256" 
d="M160 -32c-6 0 -12 2 -18 5c-4 3 -110 76 -110 219s106 216 110 219c15 9 35 5 45 -9c9 -15 5 -35 -9 -45c-4 -2 -82 -57 -82 -165s79 -163 82 -165c14 -10 18 -30 8 -45c-6 -9 -16 -14 -26 -14z" />
    <glyph glyph-name="bracket-square" unicode="&#xe0ac;" horiz-adv-x="256" 
d="M160 416c18 0 32 -14 32 -32v0c0 -18 -14 -32 -32 -32h-64v-320h64c18 0 32 -14 32 -32v0c0 -18 -14 -32 -32 -32h-96c-18 0 -32 14 -32 32v384c0 18 14 32 32 32h96z" />
    <glyph glyph-name="brackets-round" unicode="&#xe0ad;" 
d="M146 357c-4 -2 -82 -57 -82 -165s79 -163 82 -165c14 -10 18 -30 8 -45c-6 -9 -16 -14 -26 -14c-6 0 -12 2 -18 5c-4 3 -110 76 -110 219s106 216 110 219c15 9 35 5 45 -9c9 -15 5 -35 -9 -45zM402 411c4 -3 110 -76 110 -219s-106 -216 -110 -219c-6 -3 -12 -5 -18 -5
c-10 0 -20 5 -27 14c-9 15 -5 35 9 45c3 2 82 57 82 165s-79 163 -82 165c-14 10 -18 30 -8 45c9 14 29 18 44 9z" />
    <glyph glyph-name="brake-warning" unicode="&#xe0ae;" horiz-adv-x="640" 
d="M48 192c0 -59 19 -117 55 -164c6 -7 5 -17 -2 -22l-12 -11c-7 -6 -18 -5 -23 2c-43 56 -66 125 -66 195s23 139 66 195c5 7 16 8 23 2l12 -11c7 -5 7 -15 2 -21c-36 -48 -55 -106 -55 -165zM320 416c124 0 224 -100 224 -224s-100 -224 -224 -224s-224 100 -224 224
s100 224 224 224zM320 64c18 0 32 14 32 32s-14 32 -32 32s-32 -14 -32 -32s14 -32 32 -32zM346 174l12 128c1 10 -6 18 -16 18h-44c-10 0 -17 -8 -16 -18l12 -128c1 -8 8 -14 16 -14h20c8 0 15 6 16 14zM573 388c43 -56 67 -125 67 -196s-24 -140 -67 -196
c-6 -8 -16 -8 -23 -2l-13 10c-6 6 -7 15 -2 22c37 47 57 106 57 166s-20 118 -57 166c-5 7 -4 16 2 22l12 10c7 6 18 6 24 -2z" />
    <glyph glyph-name="browsers" unicode="&#xe0af;" horiz-adv-x="576" 
d="M48 16c0 -18 14 -32 32 -32h400c0 -26 -22 -48 -48 -48h-368c-35 0 -64 29 -64 64v304c0 26 22 48 48 48v-336zM512 448c35 0 64 -29 64 -64v-288c0 -35 -29 -64 -64 -64h-352c-35 0 -64 29 -64 64v288c0 35 29 64 64 64h352zM224 332v40c0 7 -5 12 -12 12h-40
c-7 0 -12 -5 -12 -12v-40c0 -7 5 -12 12 -12h40c7 0 12 5 12 12zM512 332v40c0 7 -5 12 -12 12h-232c-7 0 -12 -5 -12 -12v-40c0 -7 5 -12 12 -12h232c7 0 12 5 12 12z" />
    <glyph glyph-name="burger-fries" unicode="&#xe0b0;" horiz-adv-x="640" 
d="M224 179c-21 -4 -43 -4 -64 0v253c0 6 3 11 8 14c4 3 10 3 15 0l32 -16c6 -2 9 -8 9 -14v-237zM370 272c-15 -6 -30 -13 -43 -21l19 111l17 5c6 2 11 1 16 -3c4 -4 6 -9 5 -15zM264 130c3 -7 8 -13 14 -18c-14 -12 -22 -29 -22 -48c0 -17 6 -32 17 -43
c-10 -9 -17 -22 -17 -37c0 -5 1 -10 1 -14c1 -3 2 -5 2 -7c1 -2 1 -4 2 -6c1 -3 3 -6 4 -9c0 -1 1 -2 1 -3l6 -9h-186c-15 0 -28 10 -32 25l-54 244c-1 4 0 9 3 13s8 6 13 6h34c7 0 14 -4 15 -11c9 -39 62 -69 127 -69c24 0 46 4 65 11v0c0 -4 1 -8 2 -12c1 -5 2 -9 5 -13z
M128 190c-12 5 -22 13 -27 20l-37 197c-1 6 1 13 6 16l29 22c4 3 10 4 15 2s9 -7 10 -12l4 -20v-225zM50 256h-33l-17 93c-1 6 1 11 5 15s10 5 16 3l19 -6l20 -107c-3 1 -6 2 -10 2zM320 397l-30 -172c-1 -2 -2 -3 -2 -4c-3 -3 -6 -6 -8 -9c-5 -5 -9 -10 -13 -15v-1
c-4 -3 -7 -5 -11 -6v207c2 4 5 7 9 8l34 10c6 2 11 1 16 -3c4 -4 6 -9 5 -15zM624 0c9 0 16 -7 16 -16c0 -26 -22 -48 -48 -48h-256c-27 0 -48 22 -48 48c0 9 7 16 16 16h320zM294 179c29 43 94 77 170 77s141 -34 170 -77c15 -22 0 -51 -25 -51h-290c-25 0 -40 29 -25 51z
M544 208c-9 0 -16 -7 -16 -16s7 -16 16 -16s16 7 16 16s-7 16 -16 16zM464 224c-9 0 -16 -7 -16 -16s7 -16 16 -16s16 7 16 16s-7 16 -16 16zM384 208c-9 0 -16 -7 -16 -16s7 -16 16 -16s16 7 16 16s-7 16 -16 16zM608 96c18 0 32 -14 32 -32s-14 -32 -32 -32h-288
c-18 0 -32 14 -32 32s14 32 32 32h288z" />
    <glyph glyph-name="burger-glass" unicode="&#xe0b1;" horiz-adv-x="640" 
d="M608 96c18 0 32 -14 32 -32s-14 -32 -32 -32h-288c-18 0 -32 14 -32 32s14 32 32 32h288zM294 179c29 43 94 77 170 77s141 -34 170 -77c15 -22 0 -51 -25 -51h-290c-25 0 -40 29 -25 51zM544 208c-9 0 -16 -7 -16 -16s7 -16 16 -16s16 7 16 16s-7 16 -16 16zM464 224
c-9 0 -16 -7 -16 -16s7 -16 16 -16s16 7 16 16s-7 16 -16 16zM384 208c-9 0 -16 -7 -16 -16s7 -16 16 -16s16 7 16 16s-7 16 -16 16zM624 0c9 0 16 -7 16 -16c0 -26 -22 -48 -48 -48h-256c-27 0 -48 22 -48 48c0 9 7 16 16 16h320zM337 257c-28 -16 -53 -36 -70 -60
c-13 -20 -15 -46 -3 -67c3 -7 8 -13 14 -18c-14 -12 -22 -29 -22 -48c0 -17 6 -32 17 -43c-10 -9 -17 -22 -17 -37c0 -18 6 -35 16 -48h-199c-16 0 -30 12 -32 29l-41 448c-2 19 13 35 32 35h288c19 0 34 -16 32 -35zM76 288h200l9 96h-218z" />
    <glyph glyph-name="c" unicode="&#xe0b2;" horiz-adv-x="384" 
d="M217 -32c-59 0 -113 24 -154 66c-84 87 -84 229 0 316c41 42 95 66 154 66s113 -24 154 -66c18 -20 17 -50 -2 -68s-49 -18 -68 1c-45 48 -124 48 -169 0c-48 -50 -48 -132 0 -182c45 -48 124 -48 169 0c19 19 49 20 68 1c19 -18 20 -48 2 -68c-41 -42 -96 -66 -154 -66z
" />
    <glyph glyph-name="cable-car" unicode="&#xe0b3;" 
d="M192 352c-18 0 -32 14 -32 32s14 32 32 32s32 -14 32 -32s-14 -32 -32 -32zM288 384c-18 0 -32 14 -32 32s14 32 32 32s32 -14 32 -32s-14 -32 -32 -32zM511 396c3 -8 -2 -17 -11 -20l-228 -60v-92h144c35 0 64 -29 64 -64v-160c0 -35 -29 -64 -64 -64h-320
c-35 0 -64 29 -64 64v160c0 35 29 64 64 64h144v83l-220 -58c-1 -1 -3 -1 -4 -1c-7 0 -14 5 -15 12c-3 8 2 17 11 19l480 128c8 3 17 -2 19 -11zM176 64v96h-96v-96h96zM336 160v-96h96v96h-96zM304 160h-96v-96h96v96z" />
    <glyph glyph-name="calendar-arrow-down" unicode="&#xe0b4;" horiz-adv-x="448" 
d="M448 336v-48h-448v48c0 26 22 48 48 48h48v48c0 9 7 16 16 16h32c9 0 16 -7 16 -16v-48h128v48c0 9 7 16 16 16h32c9 0 16 -7 16 -16v-48h48c26 0 48 -22 48 -48zM0 256h448v-272c0 -26 -22 -48 -48 -48h-352c-26 0 -48 22 -48 48v272zM321 121c-9 9 -25 9 -34 0l-39 -39
v102c0 13 -11 24 -24 24s-24 -11 -24 -24v-102l-39 39c-5 5 -11 7 -17 7s-12 -2 -17 -7c-9 -9 -9 -25 0 -34l80 -80c9 -9 25 -9 34 0l80 80c9 9 9 25 0 34z" />
    <glyph glyph-name="calendar-arrow-up" unicode="&#xe0b5;" horiz-adv-x="448" 
d="M448 336v-48h-448v48c0 26 22 48 48 48h48v48c0 9 7 16 16 16h32c9 0 16 -7 16 -16v-48h128v48c0 9 7 16 16 16h32c9 0 16 -7 16 -16v-48h48c26 0 48 -22 48 -48zM0 256h448v-272c0 -26 -22 -48 -48 -48h-352c-26 0 -48 22 -48 48v272zM127 87c9 -9 25 -9 34 0l39 39
v-102c0 -13 11 -24 24 -24s24 11 24 24v102l39 -39c5 -5 11 -7 17 -7s12 2 17 7c9 9 9 25 0 34l-80 80c-9 9 -25 9 -34 0l-80 -80c-9 -9 -9 -25 0 -34z" />
    <glyph glyph-name="calendar-clock" unicode="&#xe0b6;" horiz-adv-x="576" 
d="M448 336v-48h-448v48c0 26 22 48 48 48h48v48c0 9 7 16 16 16h32c9 0 16 -7 16 -16v-48h128v48c0 9 7 16 16 16h32c9 0 16 -7 16 -16v-48h48c26 0 48 -22 48 -48zM432 224c80 0 144 -64 144 -144s-64 -144 -144 -144s-144 64 -144 144s64 144 144 144zM480 64
c9 0 16 7 16 16s-7 16 -16 16h-32v48c0 9 -7 16 -16 16s-16 -7 -16 -16v-70c0 -6 4 -10 10 -10h54zM256 80c0 -60 30 -112 75 -144h-283c-26 0 -48 22 -48 48v272h432c-97 0 -176 -79 -176 -176z" />
    <glyph glyph-name="calendar-heart" unicode="&#xe0b7;" horiz-adv-x="448" 
d="M0 -16v272h448v-272c0 -26 -22 -48 -48 -48h-352c-26 0 -48 22 -48 48zM136 179c-27 -23 -29 -64 -5 -89l83 -86c6 -5 14 -5 20 0l83 86c24 25 22 66 -5 89c-23 20 -58 16 -80 -6l-8 -9l-9 9c-21 22 -56 26 -79 6zM400 384c26 0 48 -22 48 -48v-48h-448v48
c0 26 22 48 48 48h48v48c0 9 7 16 16 16h32c9 0 16 -7 16 -16v-48h128v48c0 9 7 16 16 16h32c9 0 16 -7 16 -16v-48h48z" />
    <glyph glyph-name="calendar-image" unicode="&#xe0b8;" horiz-adv-x="448" 
d="M0 -16v272h448v-272c0 -26 -22 -48 -48 -48h-352c-26 0 -48 22 -48 48zM184 73l-12 16c-3 5 -8 7 -13 7s-10 -2 -13 -7l-47 -64c-3 -4 -4 -11 -1 -16c2 -6 8 -9 14 -9h224c6 0 11 3 14 8c3 6 3 12 -1 17l-85 128c-3 4 -7 7 -13 7s-11 -3 -14 -7zM128 192
c-18 0 -32 -14 -32 -32s14 -32 32 -32s32 14 32 32s-14 32 -32 32zM400 384c26 0 48 -22 48 -48v-48h-448v48c0 26 22 48 48 48h48v48c0 9 7 16 16 16h32c9 0 16 -7 16 -16v-48h128v48c0 9 7 16 16 16h32c9 0 16 -7 16 -16v-48h48z" />
    <glyph glyph-name="calendar-lines" unicode="&#xe0b9;" horiz-adv-x="448" 
d="M0 -16v272h448v-272c0 -26 -22 -48 -48 -48h-352c-26 0 -48 22 -48 48zM112 160c-9 0 -16 -7 -16 -16s7 -16 16 -16h224c9 0 16 7 16 16s-7 16 -16 16h-224zM112 64c-9 0 -16 -7 -16 -16s7 -16 16 -16h128c9 0 16 7 16 16s-7 16 -16 16h-128zM400 384c26 0 48 -22 48 -48
v-48h-448v48c0 26 22 48 48 48h48v48c0 9 7 16 16 16h32c9 0 16 -7 16 -16v-48h128v48c0 9 7 16 16 16h32c9 0 16 -7 16 -16v-48h48z" />
    <glyph glyph-name="calendar-range" unicode="&#xe0ba;" horiz-adv-x="448" 
d="M400 384c26 0 48 -22 48 -48v-48h-448v48c0 26 22 48 48 48h48v48c0 9 7 16 16 16h32c9 0 16 -7 16 -16v-48h128v48c0 9 7 16 16 16h32c9 0 16 -7 16 -16v-48h48zM0 -16v272h448v-272c0 -26 -22 -48 -48 -48h-352c-26 0 -48 22 -48 48zM384 16v32c0 9 -7 16 -16 16h-32
c-9 0 -16 -7 -16 -16v-32c0 -9 7 -16 16 -16h32c9 0 16 7 16 16zM184 184c-13 0 -24 -11 -24 -24s11 -24 24 -24h176c13 0 24 11 24 24s-11 24 -24 24h-176zM64 176v-32c0 -9 7 -16 16 -16h32c9 0 16 7 16 16v32c0 9 -7 16 -16 16h-32c-9 0 -16 -7 -16 -16zM88 56
c-13 0 -24 -11 -24 -24s11 -24 24 -24h176c13 0 24 11 24 24s-11 24 -24 24h-176z" />
    <glyph glyph-name="calendars" unicode="&#xe0bb;" 
d="M96 80v176h416v-176c0 -26 -22 -48 -48 -48h-320c-26 0 -48 22 -48 48zM464 384c26 0 48 -22 48 -48v-48h-416v48c0 26 22 48 48 48h48v48c0 9 7 16 16 16h32c9 0 16 -7 16 -16v-48h96v48c0 9 7 16 16 16h32c9 0 16 -7 16 -16v-48h48zM48 16c0 -18 14 -32 32 -32h336
c0 -26 -22 -48 -48 -48h-304c-35 0 -64 29 -64 64v240c0 26 22 48 48 48v-272z" />
    <glyph glyph-name="camera-viewfinder" unicode="&#xe0bc;" 
d="M384 128c0 -18 -14 -32 -32 -32h-192c-18 0 -32 14 -32 32v128c0 18 14 32 32 32h36l6 16c4 10 13 16 23 16h62c10 0 19 -6 23 -16l6 -16h36c18 0 32 -14 32 -32v-128zM256 144c26 0 48 22 48 48s-22 48 -48 48s-48 -22 -48 -48s22 -48 48 -48zM144 16c9 0 16 -7 16 -16
v-16c0 -9 -7 -16 -16 -16h-112c-18 0 -32 14 -32 32v112c0 9 7 16 16 16h16c9 0 16 -7 16 -16v-96h96zM16 256c-9 0 -16 7 -16 16v112c0 18 14 32 32 32h112c9 0 16 -7 16 -16v-16c0 -9 -7 -16 -16 -16h-96v-96c0 -9 -7 -16 -16 -16h-16zM480 416c18 0 32 -14 32 -32v-112
c0 -9 -7 -16 -16 -16h-16c-9 0 -16 7 -16 16v96h-96c-9 0 -16 7 -16 16v16c0 9 7 16 16 16h112zM496 128c9 0 16 -7 16 -16v-112c0 -18 -14 -32 -32 -32h-112c-9 0 -16 7 -16 16v16c0 9 7 16 16 16h96v96c0 9 7 16 16 16h16z" />
    <glyph glyph-name="cedi-sign" unicode="&#xe0bd;" horiz-adv-x="384" 
d="M322 98l23 -23c10 -11 9 -28 -3 -37c-29 -22 -65 -34 -102 -37v-49c0 -9 -7 -16 -16 -16h-32c-9 0 -16 7 -16 16v55c-33 8 -63 25 -87 49c-37 36 -57 85 -57 136s20 100 57 136c24 24 54 41 87 49v55c0 9 7 16 16 16h32c9 0 16 -7 16 -16v-49c37 -3 73 -15 102 -37
c12 -9 13 -26 3 -37l-23 -23c-8 -8 -21 -9 -31 -3c-15 11 -33 17 -51 19v-220c18 2 36 8 51 19c10 6 22 5 31 -3zM146 113c9 -9 19 -16 30 -21v200c-11 -5 -21 -12 -30 -21c-21 -21 -33 -49 -33 -79s12 -58 33 -79z" />
    <glyph glyph-name="cent-sign" unicode="&#xe0be;" horiz-adv-x="320" 
d="M313 75c10 -11 9 -28 -3 -37c-30 -22 -65 -35 -103 -37v-49c0 -9 -7 -16 -16 -16h-31c-9 0 -16 7 -16 16v55c-33 8 -63 25 -87 49c-37 36 -57 85 -57 136s20 100 57 136c24 24 54 41 87 49v55c0 9 7 16 16 16h31c9 0 16 -7 16 -16v-49c38 -2 73 -15 103 -37
c12 -9 13 -26 3 -37l-23 -23c-9 -8 -21 -9 -31 -3c-43 30 -107 26 -145 -12c-21 -21 -33 -49 -33 -79s12 -58 33 -79c38 -38 102 -42 145 -12c10 6 23 5 31 -3z" />
    <glyph glyph-name="chart-bullet" unicode="&#xe0bf;" 
d="M0 128c0 18 14 32 32 32h192v-160h-192c-18 0 -32 14 -32 32v96zM32 224c-18 0 -32 14 -32 32v96c0 18 14 32 32 32h96v-160h-96zM480 384c18 0 32 -14 32 -32v-96c0 -18 -14 -32 -32 -32h-192c0 -9 -7 -16 -16 -16s-16 7 -16 16h-96v48h96v64h-96v48h96c0 9 7 16 16 16
s16 -7 16 -16h192zM464 272v64h-176v-64h176zM480 160c18 0 32 -14 32 -32v-96c0 -18 -14 -32 -32 -32h-96c0 -9 -7 -16 -16 -16s-16 7 -16 16h-96v48h96v64h-96v48h96c0 9 7 16 16 16s16 -7 16 -16h96zM464 48v64h-80v-64h80z" />
    <glyph glyph-name="chart-candlestick" unicode="&#xe0c0;" 
d="M400 128c-9 0 -16 7 -16 16v96c0 9 7 16 16 16h16v48c0 9 7 16 16 16s16 -7 16 -16v-48h16c9 0 16 -7 16 -16v-96c0 -9 -7 -16 -16 -16h-16v-48c0 -9 -7 -16 -16 -16s-16 7 -16 16v48h-16zM272 192c-9 0 -16 7 -16 16v128c0 9 7 16 16 16h16v48c0 9 7 16 16 16
s16 -7 16 -16v-48h16c9 0 16 -7 16 -16v-128c0 -9 -7 -16 -16 -16h-16v-48c0 -9 -7 -16 -16 -16s-16 7 -16 16v48h-16zM496 32c9 0 16 -7 16 -16v-32c0 -9 -7 -16 -16 -16h-464c-18 0 -32 14 -32 32v400c0 9 7 16 16 16h32c9 0 16 -7 16 -16v-368h432zM144 128
c-9 0 -16 7 -16 16v160c0 9 7 16 16 16h16v48c0 9 7 16 16 16s16 -7 16 -16v-48h16c9 0 16 -7 16 -16v-160c0 -9 -7 -16 -16 -16h-16v-48c0 -9 -7 -16 -16 -16s-16 7 -16 16v48h-16z" />
    <glyph glyph-name="chart-column" unicode="&#xe0c1;" 
d="M333 96c-7 0 -13 6 -13 13v134c0 7 6 13 13 13h38c7 0 13 -6 13 -13v-134c0 -7 -6 -13 -13 -13h-38zM429 96c-7 0 -13 6 -13 13v230c0 7 6 13 13 13h38c7 0 13 -6 13 -13v-230c0 -7 -6 -13 -13 -13h-38zM496 32c9 0 16 -7 16 -16v-32c0 -9 -7 -16 -16 -16h-464
c-18 0 -32 14 -32 32v400c0 9 7 16 16 16h32c9 0 16 -7 16 -16v-368h432zM237 96c-7 0 -13 6 -13 13v198c0 7 6 13 13 13h38c7 0 13 -6 13 -13v-198c0 -7 -6 -13 -13 -13h-38zM141 96c-7 0 -13 6 -13 13v70c0 7 6 13 13 13h38c7 0 13 -6 13 -13v-70c0 -7 -6 -13 -13 -13h-38
z" />
    </font>
</defs>
</svg>
